Чистая правда / All Is True (2018) BDRip 1080p | iTunes

Reply to topic
 
Author Message

Monk ®

Gender: Male

Longevity: 10 months 6 days

Posts: 8734

Location: Казань

Post 10-Jun-2019 17:33

[Quote]

Чистая правда / All Is True Год выпуска: 2018
Жанр: Драма, биография, история
Выпущено: Великобритания, TKBC
Режиссер: Кеннет Брана
В ролях: Кеннет Брана, Лолита Чакрабарти, Джек Колгрейв Херст, Даг Коллинг, Элеонора де Рохан, Джуди Денч, Фил Данстер, Фрейя Дуркан, Флора Истон, Сэм Эллис
О фильме: Фильм рассказывает о последних годах жизни английского поэта и драматурга Уильяма Шекспира.
Качество: BDRip 1080p
Видео: MPEG-4 AVC, 9345 Кбит/с, 1920x808
Аудио: Русский (AC3, 6 ch, 384 Кбит/с), английский (DTS, 6 ch, 1509 Кбит/с), немецкий (АС3, 6 ch, 384 Кбит/с)
Продолжительность: 01:40:55
Перевод: Профессиональный многоголосый [iTunes]
Субтитры: Английские, немецкие

Скриншоты


MediaInfo

Format : Matroska
Format version : Version 4
File size : 8.19 GiB
Duration : 1 h 40 min
Overall bit rate : 11.6 Mb/s
Movie name : All is True (2018)
Encoded date : UTC 2019-08-22 20:51:25
Writing application : mkvmerge v36.0.0 ('Is That Jazz?') 64-bit
Writing library : libebml v1.3.9 + libmatroska v1.5.2
Cover : Yes
Attachments : cover.jpg
Video
ID : 1
Format : AVC
Format/Info : Advanced Video Codec
Format profile : High@L4.1
Format settings : CABAC / 5 Ref Frames
Format settings, CABAC : Yes
Format settings, RefFrames : 5 frames
Codec ID : V_MPEG4/ISO/AVC
Duration : 1 h 40 min
Bit rate : 9 345 kb/s
Width : 1 920 pixels
Height : 808 pixels
Display aspect ratio : 2.40:1
Frame rate mode : Constant
Frame rate : 23.976 (24000/1001) FPS
Color space : YUV
Chroma subsampling : 4:2:0
Bit depth : 8 bits
Scan type : Progressive
Bits/(Pixel*Frame) : 0.251
Stream size : 6.59 GiB (80%)
Writing library : x264 core 157 r2969 d4099dd
Encoding settings : cabac=1 / ref=5 / deblock=1:0:0 / analyse=0x3:0x113 / me=umh / subme=8 / psy=1 / psy_rd=1.00:0.00 / mixed_ref=1 / me_range=16 / chroma_me=1 / trellis=1 / 8x8dct=1 / cqm=0 / deadzone=21,11 / fast_pskip=1 / chroma_qp_offset=-2 / threads=16 / lookahead_threads=2 / sliced_threads=0 / nr=0 / decimate=1 / interlaced=0 / bluray_compat=0 / constrained_intra=0 / bframes=3 / b_pyramid=2 / b_adapt=2 / b_bias=0 / direct=3 / weightb=1 / open_gop=0 / weightp=2 / keyint=240 / keyint_min=23 / scenecut=40 / intra_refresh=0 / rc_lookahead=50 / rc=2pass / mbtree=1 / bitrate=9345 / ratetol=1.0 / qcomp=0.60 / qpmin=0 / qpmax=69 / qpstep=4 / cplxblur=20.0 / qblur=0.5 / ip_ratio=1.40 / aq=1:1.00
Language : English
Default : Yes
Forced : No
Audio #1
ID : 2
Format : AC-3
Format/Info : Audio Coding 3
Commercial name : Dolby Digital
Codec ID : A_AC3
Duration : 1 h 40 min
Bit rate mode : Constant
Bit rate : 384 kb/s
Channel(s) : 6 channels
Channel layout : L R C LFE Ls Rs
Sampling rate : 48.0 kHz
Frame rate : 31.250 FPS (1536 SPF)
Bit depth : 16 bits
Compression mode : Lossy
Stream size : 277 MiB (3%)
Language : Russian
Service kind : Complete Main
Default : No
Forced : No
Audio #2
ID : 3
Format : AC-3
Format/Info : Audio Coding 3
Commercial name : Dolby Digital
Codec ID : A_AC3
Duration : 1 h 40 min
Bit rate mode : Constant
Bit rate : 384 kb/s
Channel(s) : 6 channels
Channel layout : L R C LFE Ls Rs
Sampling rate : 48.0 kHz
Frame rate : 31.250 FPS (1536 SPF)
Bit depth : 16 bits
Compression mode : Lossy
Stream size : 277 MiB (3%)
Language : German
Service kind : Complete Main
Default : Yes
Forced : No
Audio #3
ID : 4
Format : DTS
Format/Info : Digital Theater Systems
Codec ID : A_DTS
Duration : 1 h 40 min
Bit rate mode : Constant
Bit rate : 1 509 kb/s
Channel(s) : 6 channels
Channel layout : C L R Ls Rs LFE
Sampling rate : 48.0 kHz
Frame rate : 93.750 FPS (512 SPF)
Bit depth : 24 bits
Compression mode : Lossy
Stream size : 1.06 GiB (13%)
Language : English
Default : No
Forced : No
Text #1
ID : 5
Format : UTF-8
Codec ID : S_TEXT/UTF8
Codec ID/Info : UTF-8 Plain Text
Duration : 1 h 40 min
Bit rate : 0 b/s
Count of elements : 18
Stream size : 733 Bytes (0%)
Title : Forced
Language : German
Default : Yes
Forced : No
Text #2
ID : 6
Format : UTF-8
Codec ID : S_TEXT/UTF8
Codec ID/Info : UTF-8 Plain Text
Duration : 1 h 40 min
Bit rate : 54 b/s
Count of elements : 1172
Stream size : 39.7 KiB (0%)
Title : Full
Language : German
Default : No
Forced : No
Text #3
ID : 7
Format : UTF-8
Codec ID : S_TEXT/UTF8
Codec ID/Info : UTF-8 Plain Text
Duration : 1 h 34 min
Bit rate : 57 b/s
Count of elements : 1152
Stream size : 39.9 KiB (0%)
Title : Full
Language : English
Default : No
Forced : No
Menu
00:00:00.000 : en:00:00:00.000
00:05:59.359 : en:00:05:59.359
00:12:24.744 : en:00:12:24.744
00:18:53.215 : en:00:18:53.215
00:22:30.516 : en:00:22:30.516
00:29:20.384 : en:00:29:20.384
00:35:47.354 : en:00:35:47.354
00:39:06.553 : en:00:39:06.553
00:49:07.945 : en:00:49:07.945
00:59:54.007 : en:00:59:54.007
01:03:35.478 : en:01:03:35.478
01:09:44.013 : en:01:09:44.013
01:15:15.136 : en:01:15:15.136
01:18:54.230 : en:01:18:54.230
01:25:13.358 : en:01:25:13.358
01:31:34.322 : en:01:31:34.322
[Profile] [PM]
Display posts:    
Reply to topic

Current time is: 21-Sep 01:58

All times are UTC + 3



You cannot post new topics in this forum
You cannot reply to topics in this forum
You cannot edit your posts in this forum
You cannot delete your posts in this forum
You cannot vote in polls in this forum
You cannot attach files in this forum
You cannot download files in this forum