Битва за Землю / Captive State (2019) BDRip 720p | iTunes

Reply to topic
 
Author Message

Monk ®

Gender: Male

Longevity: 10 months 6 days

Posts: 8734

Location: Казань

Post 12-Jun-2019 12:13

[Quote]

Битва за Землю / Captive State Год выпуска: 2019
Жанр: Фантастика, триллер
Выпущено: США, DreamWorks, Amblin Partners, Lightfuse & Gettaway
Режиссер: Руперт Уайатт
В ролях: Джон Гудмен, Вера Фармига, Эштон Сандерс, Джонатан Мэйджерс, Кевин Данн, Джеймс Рэнсон, Алан Рак, Мадлен Брюэр, Машин Ган Келли, Кевин Дж. О`Коннор, Бен Дэниелс, Кэйтлин Эвальд, Лоуренс Грим, Гай Ван Сверинген, Елена Флорес, Д.Б. Суини, Рене Л. Морено, Та’Ронда Джонс, Ясен Пеянков, Кики Лэйн, Шэннон Кокрен
О фильме: Мы всегда знали, что не одни в этом мире. Мы отправляли сигналы в надежде получить ответ. И нас услышали. За считанные часы пришельцы захватили Землю и установили свое правительство. Сотовая связь и интернет отключены, электронные библиотеки уничтожены. Большой инопланетный брат следит за каждым, его дроны-охотники днем и ночью патрулируют улицы новой Земли. Мы - последние, те, у кого нет имени, невидимые для системы. Сегодня мы вернем нашу планету.
Качество: BDRip 720p
Видео: MPEG-4 AVC, 3500 Кбит/с, 1280x536
Аудио: Русский (AC3, 6 ch, 384 Кбит/с), английский (DTS, 6 ch, 1509 Кбит/с)
Продолжительность: 01:49:34
Перевод: Дублированный [iTunes]

Скриншоты


MediaInfo

x264 [info]: profile High, level 4.1
x264 [info]: frame I:1100 Avg QP:13.01 size:111632
x264 [info]: frame P:36945 Avg QP:15.77 size: 36109
x264 [info]: frame B:119580 Avg QP:17.50 size: 11864
-----
Общее
Уникальный идентификатор : 193826168901504028315240353743664969370 (0x91D18FF0E1F0B493B97B4E67A921F69A)
Полное имя : F:\ExKinoRayRips\Captive.State.2019.BDRip720p.Dub.ExKinoRay.mkv
Формат : Matroska
Версия формата : Version 2
Размер файла : 4,13 Гбайт
Продолжительность : 1 ч. 49 м.
Общий поток : 5395 Кбит/сек
Дата кодирования : UTC 2019-07-28 03:38:41
Программа кодирования : mkvmerge v7.8.0 ('River Man') 32bit built on Apr 3 2015 12:11:22
Библиотека кодирования : libebml v1.3.1 + libmatroska v1.4.2
Видео
Идентификатор : 1
Формат : AVC
Формат/Информация : Advanced Video Codec
Профиль формата : High@L4.1
Настройки формата : CABAC / 12 Ref Frames
Параметр CABAC формата : Да
Параметр RefFrames формата : 12 кадров
Идентификатор кодека : V_MPEG4/ISO/AVC
Продолжительность : 1 ч. 49 м.
Битрейт : 3500 Кбит/сек
Ширина : 1280 пикселей
Высота : 536 пикселей
Соотношение сторон : 2,40:1
Режим частоты кадров : Постоянный
Частота кадров : 23,976 (24000/1001) кадра/сек
Цветовое пространство : YUV
Субдискретизация насыщенности : 4:2:0
Битовая глубина : 8 бит
Тип развёртки : Прогрессивная
Бит/(Пиксели*Кадры) : 0.213
Размер потока : 2,60 Гбайт (63%)
Библиотека кодирования : x264 core 152 r2851 ba24899
Настройки программы : cabac=1 / ref=12 / deblock=1:-3:-2 / analyse=0x3:0x113 / me=umh / subme=10 / psy=1 / psy_rd=1.00:0.10 / mixed_ref=1 / me_range=32 / chroma_me=1 / trellis=2 / 8x8dct=1 / cqm=0 / deadzone=21,11 / fast_pskip=0 / chroma_qp_offset=-3 / threads=6 / lookahead_threads=1 / sliced_threads=0 / nr=0 / decimate=0 / interlaced=0 / bluray_compat=0 / constrained_intra=0 / bframes=16 / b_pyramid=2 / b_adapt=2 / b_bias=0 / direct=3 / weightb=1 / open_gop=0 / weightp=2 / keyint=240 / keyint_min=23 / scenecut=40 / intra_refresh=0 / rc=2pass / mbtree=0 / bitrate=3500 / ratetol=1.0 / qcomp=0.60 / qpmin=0 / qpmax=69 / qpstep=4 / cplxblur=20.0 / qblur=0.5 / ip_ratio=1.40 / pb_ratio=1.30 / aq=3:1.00
Язык : English
Default : Да
Forced : Нет
Цветовой диапазон : Limited
Основные цвета : BT.709
Характеристики трансфера : BT.709
Коэффициенты матрицы : BT.709
Аудио #1
Идентификатор : 2
Формат : AC-3
Формат/Информация : Audio Coding 3
Коммерческое название : Dolby Digital
Идентификатор кодека : A_AC3
Продолжительность : 1 ч. 49 м.
Вид битрейта : Постоянный
Битрейт : 384 Кбит/сек
Каналы : 6 каналов
Channel layout : L R C LFE Ls Rs
Частота : 48,0 КГц
Частота кадров : 31,250 кадров/сек (1536 SPF)
Битовая глубина : 16 бит
Метод сжатия : С потерями
Размер потока : 301 Мбайт (7%)
Заголовок : iTunes
Язык : Russian
ServiceKind/String : Complete Main
Default : Да
Forced : Нет
Аудио #2
Идентификатор : 3
Формат : DTS
Формат/Информация : Digital Theater Systems
Идентификатор кодека : A_DTS
Продолжительность : 1 ч. 49 м.
Вид битрейта : Постоянный
Битрейт : 1509 Кбит/сек
Каналы : 6 каналов
Channel layout : C L R Ls Rs LFE
Частота : 48,0 КГц
Частота кадров : 93,750 кадра/сек (512 SPF)
Битовая глубина : 24 бит
Метод сжатия : С потерями
Размер потока : 1,15 Гбайт (28%)
Язык : English
Default : Нет
Forced : Нет
Текст #1
Идентификатор : 4
Формат : UTF-8
Идентификатор кодека : S_TEXT/UTF8
Идентификатор кодека/Информация : UTF-8 Plain Text
Заголовок : Full (Focs)
Язык : Russian
Default : Нет
Forced : Нет
Текст #2
Идентификатор : 5
Формат : UTF-8
Идентификатор кодека : S_TEXT/UTF8
Идентификатор кодека/Информация : UTF-8 Plain Text
Заголовок : Full
Язык : English
Default : Нет
Forced : Нет
Текст #3
Идентификатор : 6
Формат : UTF-8
Идентификатор кодека : S_TEXT/UTF8
Идентификатор кодека/Информация : UTF-8 Plain Text
Заголовок : SDH
Язык : English
Default : Нет
Forced : Нет
Меню
00:00:00.000 : en:Chapter 01
00:06:25.385 : en:Chapter 02
00:12:34.545 : en:Chapter 03
00:18:45.999 : en:Chapter 04
00:24:21.376 : en:Chapter 05
00:26:55.113 : en:Chapter 06
00:32:44.504 : en:Chapter 07
00:38:27.596 : en:Chapter 08
00:43:36.864 : en:Chapter 09
00:47:17.626 : en:Chapter 10
00:52:14.464 : en:Chapter 11
01:00:01.598 : en:Chapter 12
01:06:42.373 : en:Chapter 13
01:11:29.576 : en:Chapter 14
01:15:18.222 : en:Chapter 15
01:19:40.859 : en:Chapter 16
01:23:32.048 : en:Chapter 17
01:31:46.542 : en:Chapter 18
01:38:12.011 : en:Chapter 19
01:45:00.877 : en:Chapter 20
[Profile] [PM]
Display posts:    
Reply to topic

Current time is: 21-Sep 01:31

All times are UTC + 3



You cannot post new topics in this forum
You cannot reply to topics in this forum
You cannot edit your posts in this forum
You cannot delete your posts in this forum
You cannot vote in polls in this forum
You cannot attach files in this forum
You cannot download files in this forum