Прорыв / Breakthrough (2019) BDRip 720p | iTunes

Reply to topic
 
Author Message

Monk ®

Gender: Male

Longevity: 9 months 3 days

Posts: 7868

Location: Казань

Post 11-Jul-2019 13:12

[Quote]

Прорыв / Breakthrough Год выпуска: 2019
Жанр: Драма, биография
Выпущено: США, Fox 2000 Pictures, Twentieth Century Fox
Режиссер: Роксанн Доусон
В ролях: Тофер Грэйс, Крисси Мец, Марсель Руис, Джош Лукас, Дэннис Хэйсбёрт, Майк Колтер, Ребекка Стааб, Сэм Трэммелл, Алиса Сковбай, Лиза Дурупт
О фильме: История чудесного спасения 14-летнего Джона, который провалился под лёд озера в Миссури. Когда мальчика доставили в больницу, он более часа не подавал признаков жизни. Его мать Джойс, не смирившись с потерей сына, призвала на помощь всю свою любовь и веру.
Качество: BDRip 720p
Видео: MPEG-4 AVC, 3241 Кбит/с, 1280x536
Аудио: Русский (AC3, 6 ch, 384 Кбит/с), английский (DTS, 6 ch, 1509 Кбит/с)
Продолжительность: 01:56:15
Перевод: Профессиональный многоголосый [iTunes]
Субтитры: Русские, английские

Скриншоты



MediaInfo

Общее
Уникальный идентификатор : 160762764238255589254904200263051209011 (0x78F1C83B90AE3AD71D1E3A0897536933)
Полное имя : F:\OlLanDGroup\Breakthrough.2019.BDRip(720p).OllanDGroup.mkv
Формат : Matroska
Версия формата : Version 4 / Version 2
Размер файла : 4,17 Гбайт
Продолжительность : 1 ч. 56 м.
Общий поток : 5136 Кбит/сек
Название фильма : Breakthrough.2019 #TorpedoUK#
Дата кодирования : UTC 2019-07-10 14:39:22
Программа кодирования : mkvmerge v29.0.0 ('Like It Or Not') 64-bit
Библиотека кодирования : libebml v1.3.6 + libmatroska v1.4.9
Видео
Идентификатор : 1
Формат : AVC
Формат/Информация : Advanced Video Codec
Профиль формата : High@L4.1
Параметр CABAC формата : Да
Параметр ReFrames формата : 12 кадров
Идентификатор кодека : V_MPEG4/ISO/AVC
Продолжительность : 1 ч. 56 м.
Битрейт : 3241 Кбит/сек
Ширина : 1280 пикселей
Высота : 536 пикселей
Соотношение сторон : 2,40:1
Режим частоты кадров : Постоянный
Частота кадров : 23,976 (24000/1001) кадра/сек
Цветовое пространство : YUV
Субдискретизация насыщенности : 4:2:0
Битовая глубина : 8 бит
Тип развёртки : Прогрессивная
Бит/(Пиксели*Кадры) : 0.197
Размер потока : 2,63 Гбайт (63%)
Библиотека кодирования : x264 core 157 r2938 2b00a84 TnP@MTeam Mod
Настройки программы : cabac=1 / ref=12 / deblock=1:-3:-3 / analyse=0x3:0x133 / me=umh / subme=10 / psy=1 / psy_rd=1.05:0.00 / mixed_ref=1 / me_range=32 / chroma_me=1 / trellis=2 / 8x8dct=1 / cqm=0 / deadzone=21,11 / fast_pskip=0 / chroma_qp_offset=-2 / threads=12 / lookahead_threads=2 / sliced_threads=0 / nr=0 / decimate=0 / interlaced=0 / bluray_compat=0 / constrained_intra=0 / bframes=8 / b_pyramid=2 / b_adapt=2 / b_bias=0 / direct=3 / weightb=1 / open_gop=0 / weightp=2 / keyint=250 / keyint_min=24 / scenecut=40 / intra_refresh=0 / rc_lookahead=250 / rc=crf / mbtree=0 / crf=16.2 / qcomp=0.60 / qpmin=0 / qpmax=69 / qpstep=4 / vbv_maxrate=62500 / vbv_bufsize=78125 / crf_max=0.0 / nal_hrd=none / filler=0 / ip_ratio=1.30 / pb_ratio=1.20 / aq=3:0.80
Язык : English
Default : Да
Forced : Нет
Цветовой диапазон : Limited
Основные цвета : BT.709
Коэффициенты матрицы : BT.709
Аудио #1
Идентификатор : 2
Формат : AC-3
Формат/Информация : Audio Coding 3
Расширение режима : CM (complete main)
Параметр Endianness формата : Big
Идентификатор кодека : A_AC3
Продолжительность : 1 ч. 56 м.
Вид битрейта : Постоянный
Битрейт : 384 Кбит/сек
Каналы : 6 каналов
Расположение каналов : Front: L C R, Side: L R, LFE
Частота : 48,0 КГц
Частота кадров : 31,250 кадров/сек (1536 spf)
Битовая глубина : 16 бит
Метод сжатия : С потерями
Размер потока : 319 Мбайт (7%)
Заголовок : MVO [iTunes]
Язык : Russian
Default : Да
Forced : Нет
Аудио #2
Идентификатор : 3
Формат : DTS
Формат/Информация : Digital Theater Systems
Режим : 16
Параметр Endianness формата : Big
Идентификатор кодека : A_DTS
Продолжительность : 1 ч. 56 м.
Вид битрейта : Постоянный
Битрейт : 1509 Кбит/сек
Каналы : 6 каналов
Расположение каналов : Front: L C R, Side: L R, LFE
Частота : 48,0 КГц
Частота кадров : 93,750 кадра/сек (512 spf)
Битовая глубина : 24 бит
Метод сжатия : С потерями
Размер потока : 1,23 Гбайт (29%)
Заголовок : [Original]
Язык : English
Default : Нет
Forced : Нет
Текст #1
Идентификатор : 4
Формат : UTF-8
Идентификатор кодека : S_TEXT/UTF8
Идентификатор кодека/Информация : UTF-8 Plain Text
Продолжительность : 1 ч. 17 м.
Битрейт : 0 бит/сек
Count of elements : 5
Размер потока : 185 байт (0%)
Заголовок : Forced
Язык : Russian
Default : Да
Forced : Нет
Текст #2
Идентификатор : 5
Формат : UTF-8
Идентификатор кодека : S_TEXT/UTF8
Идентификатор кодека/Информация : UTF-8 Plain Text
Продолжительность : 1 ч. 55 м.
Битрейт : 81 бит/сек
Count of elements : 1613
Размер потока : 68,8 Кбайт (0%)
Заголовок : Full
Язык : Russian
Default : Нет
Forced : Нет
Текст #3
Идентификатор : 6
Формат : UTF-8
Идентификатор кодека : S_TEXT/UTF8
Идентификатор кодека/Информация : UTF-8 Plain Text
Продолжительность : 1 ч. 53 м.
Битрейт : 60 бит/сек
Count of elements : 1656
Размер потока : 50,5 Кбайт (0%)
Заголовок : Full
Язык : English
Default : Нет
Forced : Нет
Меню
00:00:00.000 : en:Chapter 01
00:04:29.519 : en:Chapter 02
00:08:12.534 : en:Chapter 03
00:15:41.440 : en:Chapter 04
00:22:07.368 : en:Chapter 05
00:24:59.915 : en:Chapter 06
00:30:03.635 : en:Chapter 07
00:35:26.416 : en:Chapter 08
00:40:45.401 : en:Chapter 09
00:45:39.362 : en:Chapter 10
00:49:40.978 : en:Chapter 11
00:55:18.357 : en:Chapter 12
00:59:48.627 : en:Chapter 13
01:04:34.746 : en:Chapter 14
01:08:44.287 : en:Chapter 15
01:12:40.106 : en:Chapter 16
01:18:37.046 : en:Chapter 17
01:26:36.316 : en:Chapter 18
01:31:12.926 : en:Chapter 19
01:37:36.934 : en:Chapter 20
01:41:48.644 : en:Chapter 21
01:45:39.291 : en:Chapter 22
01:48:00.849 : en:Chapter 23
01:51:55.918 : en:Chapter 24
[Profile] [PM]
Display posts:    
Reply to topic

Current time is: 17-Aug 23:48

All times are UTC + 3



You cannot post new topics in this forum
You cannot reply to topics in this forum
You cannot edit your posts in this forum
You cannot delete your posts in this forum
You cannot vote in polls in this forum
You cannot attach files in this forum
You cannot download files in this forum