Алита: Боевой ангел / Alita: Battle Angel (2019) BDRip | Лицензия | Локализованная версия

Reply to topic
 
Author Message

papa1951deda ®

Gender: Male

Longevity: 8 months 27 days

Posts: 275

Location: Казахстан

Post 14-Jul-2019 20:00

[Quote]

Алита: Боевой ангел / Alita: Battle Angel Год выпуска: 2019
Жанр: Фантастика, боевик, триллер, мелодрама, приключения
Выпущено: Канада, Аргентина, США, Twentieth Century Fox, Lightstorm Entertainment, Troublemaker Studios
Режиссер: Роберт Родригес
В ролях: Роза Салазар, Кристоф Вальц, Дженнифер Коннелли, Махершала Али, Эд Скрейн, Джеки Эрл Хейли, Кин Джонсон, Хорхе Лендеборг мл., Лана Кондор, Идара Виктор
О фильме: Действие фильма происходит через 300 лет после Великой войны в XXVI веке. Доктор Идо находит останки женщины-киборга. После починки киборг ничего не помнит, но обнаруживает, что в состоянии пользоваться боевыми приемами киборгов. Начинаются поиски утерянных воспоминаний
Качество: BDRip
Видео: XviD, 716 Кбит/с, 688x288
Аудио: MP3, 2 ch, 128 Кбит/с
Продолжительность: 02:01:00
Перевод / Озвучка: Не требуется [Русский] [Лицензия]
Cубтитры: Русские (форс.)

Скриншоты

MediaInfo

General
Complete name : D:\моё видио\Alita.Battle.Angel.2019.BDRip.avi
Format : AVI
Format/Info : Audio Video Interleave
File size : 775 MiB
Duration : 2h 1mn
Overall bit rate : 888 Kbps
Writing application : VirtualDubMod 1.5.10.3 | www.virtualdub-fr.org || (build 2550/release)
Writing library : VirtualDubMod build 2550/release
Video
ID : 0
Format : MPEG-4 Visual
Format profile : Advanced Simple@L5
Format settings, BVOP : 2
Format settings, QPel : No
Format settings, GMC : No warppoints
Format settings, Matrix : Default (H.263)
Muxing mode : Packed bitstream
Codec ID : XVID
Codec ID/Hint : XviD
Duration : 2h 1mn
Bit rate : 716 Kbps
Width : 688 pixels
Height : 288 pixels
Display aspect ratio : 2.40:1
Frame rate : 23.976 fps
Color space : YUV
Chroma subsampling : 4:2:0
Bit depth : 8 bits
Scan type : Progressive
Compression mode : Lossy
Bits/(Pixel*Frame) : 0.151
Stream size : 625 MiB (81%)
Writing library : XviD 73
Audio
ID : 1
Format : MPEG Audio
Format version : Version 1
Format profile : Layer 3
Codec ID : 55
Codec ID/Hint : MP3
Duration : 2h 1mn
Bit rate mode : Constant
Bit rate : 128 Kbps
Channel(s) : 2 channels
Sampling rate : 48.0 KHz
Compression mode : Lossy
Stream size : 112 MiB (14%)
Alignment : Aligned on interleaves
Writing library : LAME3.99r
Encoding settings : -m s -V 4 -q 2 -lowpass 17 -b 128
[Profile] [PM]
Display posts:    
Reply to topic

Current time is: 18-Aug 00:39

All times are UTC + 3



You cannot post new topics in this forum
You cannot reply to topics in this forum
You cannot edit your posts in this forum
You cannot delete your posts in this forum
You cannot vote in polls in this forum
You cannot attach files in this forum
You cannot download files in this forum