Аббатство Даунтон / Downton Abbey (2019) BDRip 1080p | Лицензия

Reply to topic
 
Author Message

Monk ®

Gender: Male

Longevity: 1 year 4 months

Posts: 11057

Location: Казань

Post 16-Dec-2019 14:29

[Quote]

Аббатство Даунтон / Downton Abbey Год выпуска: 2019
Жанр: Драма, мелодрама
Выпущено: Великобритания, США, Carnival Film & Television, Focus Features, Perfect World Pictures
Режиссер: Майкл Энглер
В ролях: Мэттью Гуд, Элизабет МакГоверн, Мэгги Смит, Имелда Стонтон, Мишель Докери, Таппенс Мидлтон, Кейт Филлипс, Аллен Лич, Джоанн Фроггатт, Софи МакШера, Хью Бонневилль
О фильме: Главное событие в жизни каждого аристократа - прием правящего монарха в родовом гнезде. Однако в череде изысканных раутов и светских церемоний кто-то из обитателей роскошного особняка готовит покушение на короля.
Качество: BDRip 1080p
Видео: MPEG-4 AVC, 15.2 Mбит/с, 1920x804
Аудио: Русский (DTS, 6 ch, 768 Кбит/с), (AC3, 6 ch, 448 Кбит/с), английский (AC3, 6 ch, 640 Кбит/с)
Продолжительность: 02:01:43
Перевод: Дублированный [Лицензия]
Субтитры: Русские, английские

Скриншоты



MediaInfo

General
Unique ID : 263956119563166930379098433612531137687 (0xC6941976ACF4A21958735C594D2C7C97)
Complete name : E:\Video111\Downton.Abbey.2019.BDRip.1080p.seleZen.mkv
Format : Matroska
Format version : Version 4
File size : 14.5 GiB
Duration : 2 h 1 min
Overall bit rate : 17.1 Mb/s
Movie name : Downton Abbey 2019 from селезень
Encoded date : UTC 2020-01-20 19:33:54
Writing application : mkvmerge v40.0.0 ('Old Town Road + Pony') 64-bit
Writing library : libebml v1.3.9 + libmatroska v1.5.2
Video
ID : 1
Format : AVC
Format/Info : Advanced Video Codec
Format profile : High@L4.1
Format settings : CABAC / 5 Ref Frames
Format settings, CABAC : Yes
Format settings, Reference : 5 frames
Codec ID : V_MPEG4/ISO/AVC
Duration : 2 h 1 min
Bit rate : 15.2 Mb/s
Width : 1 920 pixels
Height : 804 pixels
Display aspect ratio : 2.40:1
Frame rate mode : Constant
Frame rate : 23.976 (24000/1001) FPS
Color space : YUV
Chroma subsampling : 4:2:0
Bit depth : 8 bits
Scan type : Progressive
Bits/(Pixel*Frame) : 0.411
Stream size : 12.9 GiB (89%)
Title : playHD
Writing library : x264 core 144 r2525 40bb568
Encoding settings : cabac=1 / ref=5 / deblock=1:-3:-3 / analyse=0x3:0x133 / me=umh / subme=10 / psy=1 / psy_rd=1.00:0.00 / mixed_ref=1 / me_range=32 / chroma_me=1 / trellis=2 / 8x8dct=1 / cqm=0 / deadzone=21,11 / fast_pskip=0 / chroma_qp_offset=-2 / threads=12 / lookahead_threads=2 / sliced_threads=0 / nr=0 / decimate=0 / interlaced=0 / bluray_compat=0 / constrained_intra=0 / bframes=8 / b_pyramid=2 / b_adapt=2 / b_bias=0 / direct=3 / weightb=1 / open_gop=0 / weightp=2 / keyint=250 / keyint_min=23 / scenecut=40 / intra_refresh=0 / rc=crf / mbtree=0 / crf=15.3 / qcomp=0.60 / qpmin=0 / qpmax=69 / qpstep=4 / ip_ratio=1.25 / pb_ratio=1.15 / aq=3:0.85
Language : English
Default : Yes
Forced : No
Audio #1
ID : 2
Format : DTS
Format/Info : Digital Theater Systems
Codec ID : A_DTS
Duration : 2 h 1 min
Bit rate mode : Constant
Bit rate : 768 kb/s
Channel(s) : 6 channels
Channel layout : C L R Ls Rs LFE
Sampling rate : 48.0 kHz
Frame rate : 93.750 FPS (512 SPF)
Bit depth : 24 bits
Compression mode : Lossy
Stream size : 669 MiB (4%)
Title : Dub [License]
Language : Russian
Default : Yes
Forced : Yes
Audio #2
ID : 3
Format : AC-3
Format/Info : Audio Coding 3
Commercial name : Dolby Digital
Codec ID : A_AC3
Duration : 2 h 1 min
Bit rate mode : Constant
Bit rate : 448 kb/s
Channel(s) : 6 channels
Channel layout : L R C LFE Ls Rs
Sampling rate : 48.0 kHz
Frame rate : 31.250 FPS (1536 SPF)
Compression mode : Lossy
Stream size : 390 MiB (3%)
Title : Dub [License]
Language : Russian
Service kind : Complete Main
Default : No
Forced : No
Audio #3
ID : 4
Format : AC-3
Format/Info : Audio Coding 3
Commercial name : Dolby Digital
Codec ID : A_AC3
Duration : 2 h 1 min
Bit rate mode : Constant
Bit rate : 640 kb/s
Channel(s) : 6 channels
Channel layout : L R C LFE Ls Rs
Sampling rate : 48.0 kHz
Frame rate : 31.250 FPS (1536 SPF)
Compression mode : Lossy
Stream size : 557 MiB (4%)
Title : Original
Language : English
Service kind : Complete Main
Default : No
Forced : No
Text #1
ID : 5
Format : UTF-8
Codec ID : S_TEXT/UTF8
Codec ID/Info : UTF-8 Plain Text
Duration : 2 h 1 min
Bit rate : 118 b/s
Count of elements : 1925
Stream size : 105 KiB (0%)
Title : Full
Language : Russian
Default : No
Forced : No
Text #2
ID : 6
Format : UTF-8
Codec ID : S_TEXT/UTF8
Codec ID/Info : UTF-8 Plain Text
Duration : 2 h 1 min
Bit rate : 79 b/s
Count of elements : 2346
Stream size : 70.9 KiB (0%)
Language : English
Default : No
Forced : No
Menu
00:00:00.000 : :Chapter 01
00:05:50.809 : :Chapter 02
00:12:40.510 : :Chapter 03
00:18:52.548 : :Chapter 04
00:25:24.481 : :Chapter 05
00:33:22.667 : :Chapter 06
00:39:29.158 : :Chapter 07
00:43:47.959 : :Chapter 08
00:49:58.662 : :Chapter 09
00:57:52.678 : :Chapter 10
01:03:34.561 : :Chapter 11
01:10:31.227 : :Chapter 12
01:17:20.135 : :Chapter 13
01:23:27.711 : :Chapter 14
01:28:51.618 : :Chapter 15
01:34:25.827 : :Chapter 16
01:37:59.040 : :Chapter 17
01:43:29.787 : :Chapter 18
01:51:52.080 : :Chapter 19
01:56:59.679 : :Chapter 20
[Profile] [PM]
Display posts:    
Reply to topic

Current time is: 10-Apr 08:01

All times are UTC + 3



You cannot post new topics in this forum
You cannot reply to topics in this forum
You cannot edit your posts in this forum
You cannot delete your posts in this forum
You cannot vote in polls in this forum
You cannot attach files in this forum
You cannot download files in this forum