Discovery. Защитники океана / Ocean Warriors [1-6 серии из 6] (2016) HDTVRip 720р от GeneralFilm

Reply to topic
 
Author Message

Starik60 ®

Gender: Male

Longevity: 11 months 10 days

Posts: 171

Location: Москва, Россия

Post 03-Dec-2018 16:39

[Quote]

Защитники океана / Ocean Warriors
Год выпуска: 2016
Жанр: Документальный, экология, наука
Выпущено: США, Discovery Channel
О фильме: Ежегодно сотни тысяч морских черепах, птиц и мальков напрасно гибнут на крючках и в сетях. Но этим преступления на море не ограничиваются – трюмы браконьерских судов полны нелегально добытого тунца и акульих плавников. В новой программе «Защитники океана» международная команда активистов, журналистов и ученых выходит в воды Антарктики, чтобы с риском для жизни бороться с незаконной ловлей рыбы. Летом 2015 года судно Rainbow Warrior III отчалило от берегов Новой Зеландии, чтобы за 60 дней совершить путешествие по Тихому океану и пролить свет на незаконную деятельность в международных водах. Браконьерство – только одна сторона этой проблемы. Вы собственными глазами увидите, в каких условиях принуждают трудиться рыбаков, и какой ценой добывается тунец, который затем отправляется на прилавки магазинов.

Качество: HDTVRip 720p
Видео: MPEG-4 AVC, ~ 4000 Кбит/с, 1280x720
Аудио: MP2, 2 ch, 192 Кбит/с
Продолжительность: 6 х ~ 00:44:00
Перевод: Профессиональный (одноголосый, закадровый)

Скриншоты



MediaInfo

General
Unique ID : 85797466603499269410760582773863789470 (0x408BFDB2BA6475E1E8832C2799B6B39E)
Complete name : H:\Раздачи 3\Защитники океана 720p GeneralFilm\01 Защитники океана.mkv
Format : Matroska
Format version : Version 2
File size : 1.29 GiB
Duration : 43 min 55 s
Overall bit rate mode : Constant
Overall bit rate : 4 199 kb/s
Writing application : Lavf54.63.104
Writing library : Lavf54.63.104
Video
ID : 1
Format : AVC
Format/Info : Advanced Video Codec
Format profile : High@L4.1
Format settings : CABAC / 3 Ref Frames
Format settings, CABAC : Yes
Format settings, ReFrames : 3 frames
Codec ID : V_MPEG4/ISO/AVC
Duration : 43 min 55 s
Bit rate mode : Constant
Bit rate : 4 000 kb/s
Width : 1 280 pixels
Height : 720 pixels
Display aspect ratio : 16:9
Frame rate mode : Constant
Frame rate : 50.000 FPS
Standard : PAL
Color space : YUV
Chroma subsampling : 4:2:0
Bit depth : 8 bits
Scan type : Progressive
Bits/(Pixel*Frame) : 0.087
Stream size : 1.20 GiB (93%)
Default : No
Forced : No
Color range : Limited
Color primaries : BT.709
Transfer characteristics : BT.709
Matrix coefficients : BT.709
Audio
ID : 2
Format : MPEG Audio
Format version : Version 1
Format profile : Layer 2
Codec ID : A_MPEG/L2
Codec ID/Hint : MP2
Duration : 43 min 55 s
Bit rate mode : Constant
Bit rate : 192 kb/s
Channel(s) : 2 channels
Sampling rate : 48.0 kHz
Compression mode : Lossy
Delay relative to video : 24 ms
Stream size : 60.3 MiB (5%)
Language : English
Default : Yes
Forced : No

Название серий

01. Остановить браконьеров.
02. Охота на плохих парней
03. Схватка с врагом.
04. Правда и ложь.
05. Жизнь и смерть.
06. Стойкость.
Благодарю за отличный постер ValkiriaGF
Релиз от:
[Profile] [PM]
Display posts:    
Reply to topic

Current time is: 23-Oct 09:07

All times are UTC + 3



You cannot post new topics in this forum
You cannot reply to topics in this forum
You cannot edit your posts in this forum
You cannot delete your posts in this forum
You cannot vote in polls in this forum
You cannot attach files in this forum
You cannot download files in this forum