Финал / Finale (2018) WEB-DL 720p | iTunes

Reply to topic
 
Author Message

Monk ®

Gender: Male

Longevity: 1 year 4 months

Posts: 10910

Location: Казань

Post 03-Feb-2020 01:21

[Quote]

Финал / Finale Год выпуска: 2018
Жанр: Ужасы, детектив
Выпущено: Дания,Frightgeist Film
Режиссер: Сорен Юль Петерсен
В ролях: Энн Бергфельд, Карин Михельсен, Дэймон Янгер, Кристоффер Фабрициус, Мэдс Коудал, Ким Сёндерхолм, Густав Скавениус, Ларс Кнутсон, Фрейя Меллер-Серенсен, Ян Лёфберг
О фильме: По всей стране тишина. Все приклеены к телевизору и смотрят финал. Ни одной души не видно на улицах. На окраине Дании, однако, небольшая заправочная станция все еще нуждается в персонале. И в этот конкретный вечер дежурят две совершенно разные молодые женщины. Агнес, студентка колледжа, пытается работать над своей диссертацией, в то время как наивная Белинда отправляет смс, пытаясь привлечь внимание своего парня. К сожалению, смена не пройдет без происшествий, потому что отсутствие клиентов не означает отсутствие свидетелей...
Качество: WEB-DL 720p
Видео: MPEG-4 AVC, 4058 Кбит/с, 1280x536
Аудио: Русский (AC3, 6 ch, 384 Кбит/с)
Продолжительность: 01:39:05
Перевод: Профессиональный многоголосый [iTunes]

Скриншоты


MediaInfo

General
Unique ID : 232433438447902301780171539442648514470 (0xAEDD0D4A85B647B6988794117CD87FA6)
Complete name : Final.2018.WEB-DL.720p.ELEKTRI4KA.UNIONGANG.mkv
Format : Matroska
Format version : Version 4 / Version 2
File size : 3.08 GiB
Duration : 1 h 39 min
Overall bit rate : 4 444 kb/s
Encoded date : UTC 2020-02-02 00:11:31
Writing application : mkvmerge v8.3.0 ('Over the Horizon') 64bit
Writing library : libebml v1.3.1 + libmatroska v1.4.2
Video
ID : 1
Format : AVC
Format/Info : Advanced Video Codec
Format profile : Main@L3.1
Format settings, CABAC : No
Format settings, ReFrames : 2 frames
Codec ID : V_MPEG4/ISO/AVC
Duration : 1 h 39 min
Bit rate : 4 058 kb/s
Width : 1 280 pixels
Height : 536 pixels
Display aspect ratio : 2.40:1
Frame rate mode : Constant
Frame rate : 24.000 FPS
Color space : YUV
Chroma subsampling : 4:2:0
Bit depth : 8 bits
Scan type : Progressive
Bits/(Pixel*Frame) : 0.246
Stream size : 2.81 GiB (91%)
Language : English
Default : Yes
Forced : No
Color range : Limited
Color primaries : BT.709
Transfer characteristics : BT.709
Matrix coefficients : BT.709
Audio
ID : 2
Format : AC-3
Format/Info : Audio Coding 3
Mode extension : CM (complete main)
Format settings, Endianness : Big
Codec ID : A_AC3
Duration : 1 h 39 min
Bit rate mode : Constant
Bit rate : 384 kb/s
Channel(s) : 6 channels
Channel positions : Front: L C R, Side: L R, LFE
Sampling rate : 48.0 kHz
Frame rate : 31.250 FPS (1536 spf)
Bit depth : 16 bits
Compression mode : Lossy
Stream size : 272 MiB (9%)
Title : ELEKTRI4KA
Language : Russian
Default : Yes
Forced : No
Menu
00:00:00.000 : en:?“?»?°???° 1
00:08:36.375 : en:?“?»?°???° 2
00:16:56.166 : en:?“?»?°???° 3
00:25:30.707 : en:?“?»?°???° 4
00:34:00.248 : en:?“?»?°???° 5
00:42:27.581 : en:?“?»?°???° 6
00:51:20.539 : en:?“?»?°???° 7
01:00:10.705 : en:?“?»?°???° 8
01:09:27.746 : en:?“?»?°???° 9
01:17:36.787 : en:?“?»?°???° 10
01:25:46.995 : en:?“?»?°???° 11
[Profile] [PM]
Display posts:    
Reply to topic

Current time is: 02-Apr 13:34

All times are UTC + 3



You cannot post new topics in this forum
You cannot reply to topics in this forum
You cannot edit your posts in this forum
You cannot delete your posts in this forum
You cannot vote in polls in this forum
You cannot attach files in this forum
You cannot download files in this forum