В погоне за ветром / Ride Like a Girl (2019) BDRip 1080p | iTunes

Reply to topic
 
Author Message

Monk ®

Gender: Male

Longevity: 1 year 4 months

Posts: 10910

Location: Казань

Post 03-Feb-2020 01:49

[Quote]

В погоне за ветром / Ride Like a Girl Год выпуска: 2019
Жанр: Драма, биография, спорт
Выпущено: Австралия, Magdalene Media, Screen Australia, The Film Company
Режиссер: Рэйчел Гриффитс
В ролях: Тереза Палмер, Сэм Нилл, Салливан Степлтон, Брук Сатчуэлл, Магда Шубански, Софиа Форрест, Аарон Гленнэйн, Эми Кристиан, Генри Никсон, Джейкоб Уорнер, Вероника Томас
О фильме: Только раз в году в сердце Австралии проходит самый престижный конный турнир - Кубок Мельбурна. Это роскошный праздник, где красота дамских шляпок уступает лишь великолепию самих гонок. Для всех она - выскочка, девочка из глубинки, которой не место в спорте королей. И за право участвовать в Кубке ей придется рискнуть всем, даже своей жизнью.
Качество: BDRip 1080p
Видео: MPEG-4 AVC, 15,2 Мбит/с, 1920x1038
Аудио: Русский (AC3, 6 ch, 384 Кбит/с), английский (AC3, 6 ch, 640 Кбит/с)
Продолжительность: 01:36:48
Перевод: Дублированный [iTunes]
Субтитры: Английские

Скриншоты



MediaInfo

Общее
Уникальный идентификатор : 8260614716435005118647520139531914351 (0x636EFC00BD54335F23E006E51EE0C6F)
Полное имя : Ride.Like.a.Girl.2019.1080p.BluRay.x264.mkv
Формат : Matroska
Версия формата : Version 4
Размер файла : 11,1 Гбайт
Продолжительность : 1 ч. 38 м.
Общий поток : 16,2 Мбит/сек
Название фильма : В погоне за ветром / Ride Like a Girl (2019)
Дата кодирования : UTC 2020-01-11 11:28:25
Программа кодирования : mkvmerge v41.0.0 ('Smarra') 64-bit
Библиотека кодирования : libebml v1.3.9 + libmatroska v1.5.2
Видео
Идентификатор : 1
Формат : AVC
Формат/Информация : Advanced Video Codec
Профиль формата : High@L4.1
Настройки формата : CABAC / 4 Ref Frames
Параметр CABAC формата : Да
Параметр RefFrames формата : 4 кадра
Идентификатор кодека : V_MPEG4/ISO/AVC
Продолжительность : 1 ч. 38 м.
Битрейт : 15,2 Мбит/сек
Ширина : 1920 пикселей
Высота : 1038 пикселей
Соотношение сторон : 1,85:1
Режим частоты кадров : Постоянный
Частота кадров : 24,000 кадра/сек
Цветовое пространство : YUV
Субдискретизация насыщенности : 4:2:0
Битовая глубина : 8 бит
Тип развёртки : Прогрессивная
Бит/(Пиксели*Кадры) : 0.318
Размер потока : 10,4 Гбайт (94%)
Заголовок : #iFT
Библиотека кодирования : x264 core 159 r2991+49 ~ Encoded by Mocunaman in Portugal
Настройки программы : cabac=1 / ref=4 / deblock=1:-3:-3 / analyse=0x3:0x113 / me=umh / subme=10 / psy=1 / fade_compensate=0.00 / psy_rd=1.00:0.00 / mixed_ref=1 / me_range=32 / chroma_me=1 / trellis=2 / 8x8dct=1 / cqm=0 / deadzone=21,11 / fast_pskip=0 / chroma_qp_offset=-2 / threads=32 / lookahead_threads=5 / sliced_threads=0 / nr=0 / decimate=0 / interlaced=0 / bluray_compat=0 / constrained_intra=0 / fgo=0 / bframes=9 / b_pyramid=2 / b_adapt=2 / b_bias=0 / direct=3 / weightb=1 / open_gop=0 / weightp=2 / keyint=250 / keyint_min=24 / scenecut=40 / intra_refresh=0 / rc_lookahead=60 / rc=crf / mbtree=0 / crf=18.5000 / qcomp=0.60 / qpmin=0:0:0 / qpmax=69:69:69 / qpstep=4 / vbv_maxrate=62500 / vbv_bufsize=78125 / crf_max=0.0 / nal_hrd=none / filler=0 / ip_ratio=1.30 / pb_ratio=1.20 / aq=3:0.80 / aq-sensitivity=10.00 / aq-factor=1.00:1.00:1.00 / aq2=0 / aq3=0
Язык : English
Default : Да
Forced : Нет
Цветовой диапазон : Limited
Основные цвета : BT.709
Характеристики трансфера : BT.709
Коэффициенты матрицы : BT.709
Аудио #1
Идентификатор : 2
Формат : AC-3
Формат/Информация : Audio Coding 3
Коммерческое название : Dolby Digital
Идентификатор кодека : A_AC3
Продолжительность : 1 ч. 38 м.
Вид битрейта : Постоянный
Битрейт : 384 Кбит/сек
Каналы : 6 каналов
ChannelLayout : L R C LFE Ls Rs
Частота : 48,0 КГц
Частота кадров : 31,250 кадров/сек (1536 SPF)
Метод сжатия : С потерями
Размер потока : 270 Мбайт (2%)
Заголовок : iTunes
Язык : Russian
ServiceKind/String : Complete Main
Default : Да
Forced : Нет
Аудио #2
Идентификатор : 3
Формат : AC-3
Формат/Информация : Audio Coding 3
Коммерческое название : Dolby Digital
Идентификатор кодека : A_AC3
Продолжительность : 1 ч. 38 м.
Вид битрейта : Постоянный
Битрейт : 640 Кбит/сек
Каналы : 6 каналов
ChannelLayout : L R C LFE Ls Rs
Частота : 48,0 КГц
Частота кадров : 31,250 кадров/сек (1536 SPF)
Метод сжатия : С потерями
Размер потока : 449 Мбайт (4%)
Заголовок : Original
Язык : English
ServiceKind/String : Complete Main
Default : Нет
Forced : Нет
Текст
Идентификатор : 4
Формат : UTF-8
Идентификатор кодека : S_TEXT/UTF8
Идентификатор кодека/Информация : UTF-8 Plain Text
Продолжительность : 1 ч. 31 м.
Битрейт : 68 бит/сек
ElementCount : 1441
Размер потока : 45,9 Кбайт (0%)
Заголовок : SDH
Язык : English
Default : Нет
Forced : Нет
Меню
00:00:00.000 : en:Chapter 1
00:08:29.082 : en:Chapter 2
00:16:47.999 : en:Chapter 3
00:25:04.749 : en:Chapter 4
00:31:35.291 : en:Chapter 5
00:38:45.666 : en:Chapter 6
00:52:03.624 : en:Chapter 7
01:02:26.124 : en:Chapter 8
01:10:17.124 : en:Chapter 9
01:16:11.582 : en:Chapter 10
01:23:10.332 : en:Chapter 11
01:32:58.499 : en:Chapter 12
[Profile] [PM]
Display posts:    
Reply to topic

Current time is: 02-Apr 11:09

All times are UTC + 3



You cannot post new topics in this forum
You cannot reply to topics in this forum
You cannot edit your posts in this forum
You cannot delete your posts in this forum
You cannot vote in polls in this forum
You cannot attach files in this forum
You cannot download files in this forum