Аэронавты / The Aeronauts (2019) WEB-DL 720p | Mallorn

Reply to topic
 
Author Message

Monk ®

Gender: Male

Longevity: 1 year 4 months

Posts: 10910

Location: Казань

Post 03-Feb-2020 02:16

[Quote]

Аэронавты / The Aeronauts Год выпуска: 2019
Жанр: Приключения, мелодрама, драма, биография
Выпущено: Великобритания, США, Amazon Studios, Mandeville Films, One Shoe Films
Режиссер: Том Харпер
В ролях: Фелисити Джонс, Эдди Редмэйн, Химеш Патель, Левин Ллойд, Фиби Фокс, Тим МакИннерни, Энн Рейд, Том Кортни, Ребекка Фронт, Венсан Перес, Роберт Гленистер, Джулиан Ферро, Джон Тейлор, Томас Арнольд, Камиль Лемешевский
О фильме: Лондон. 1862 год. Она - очаровательная богатая молодая женщина, увлеченная управлением воздушных шаров. Он - исследователь метеоролог, готовый на все, чтобы совершить научный прорыв. Самой судьбой им было предназначено взлететь выше, чем кто-либо в истории. Вдвоем они отправятся в отчаянное путешествие на аэростате, через бури и грозы на край неизведанного мира, где воздух разряжен, а шансы на выживание невелики...
Качество: WEB-DL 720p
Видео: MPEG-4 AVC, 4708 Kбит/с, 1280x688
Аудио: Русский (АС3, 6 ch, 384 Кбит/с), английский (АС3, 6 ch, 640 Кбит/с)
Продолжительность: 01:40:29
Перевод: Любительский многоголосый [Mallorn]
Субтитры: Русские, английские, испанские, французские, итальянские, португальские

Скриншоты


MediaInfo

Источник: The.Aeronauts.2019.720p.AMZN.WEB-DL.DDP5.1.H.264-NTG
General
Unique ID : 182288500418358298190087758519595024076 (0x89237CF738F6756BAE11CF7AF2F1BECC)
Complete name : The.Aeronauts.2019.AMZN.WEB-DL.720p.mkv
Format : Matroska
Format version : Version 4
File size : 4.03 GiB
Duration : 1 h 40 min
Overall bit rate : 5 735 kb/s
Encoded date : UTC 2019-12-29 08:45:17
Writing application : mkvmerge v7.1.0 ('Good Love') 64bit built on Jul 27 2014 13:06:55
Writing library : libebml v1.3.0 + libmatroska v1.4.1
Video
ID : 1
Format : AVC
Format/Info : Advanced Video Codec
Format profile : High@L3.1
Format settings : CABAC / 4 Ref Frames
Format settings, CABAC : Yes
Format settings, Reference fra : 4 frames
Codec ID : V_MPEG4/ISO/AVC
Duration : 1 h 40 min
Bit rate mode : Constant
Bit rate : 4 708 kb/s
Nominal bit rate : 6 000 kb/s
Width : 1 280 pixels
Height : 688 pixels
Display aspect ratio : 1.85:1
Frame rate mode : Constant
Frame rate : 23.976 (24000/1001) FPS
Color space : YUV
Chroma subsampling : 4:2:0
Bit depth : 8 bits
Scan type : Progressive
Bits/(Pixel*Frame) : 0.223
Stream size : 3.30 GiB (82%)
Language : English
Default : Yes
Forced : No
Color range : Limited
Color primaries : BT.709
Transfer characteristics : BT.709
Matrix coefficients : BT.709
Audio #1
ID : 2
Format : AC-3
Format/Info : Audio Coding 3
Commercial name : Dolby Digital
Codec ID : A_AC3
Duration : 1 h 40 min
Bit rate mode : Constant
Bit rate : 384 kb/s
Channel(s) : 6 channels
Channel layout : L R C LFE Ls Rs
Sampling rate : 48.0 kHz
Frame rate : 31.250 FPS (1536 SPF)
Compression mode : Lossy
Stream size : 276 MiB (7%)
Title : Mallorn
Language : Russian
Service kind : Complete Main
Default : Yes
Forced : No
Audio #2
ID : 3
Format : AC-3
Format/Info : Audio Coding 3
Commercial name : Dolby Digital
Codec ID : A_AC3
Duration : 1 h 40 min
Bit rate mode : Constant
Bit rate : 640 kb/s
Channel(s) : 6 channels
Channel layout : L R C LFE Ls Rs
Sampling rate : 48.0 kHz
Frame rate : 31.250 FPS (1536 SPF)
Compression mode : Lossy
Stream size : 460 MiB (11%)
Language : English
Service kind : Complete Main
Default : No
Forced : No
Text #1
ID : 4
Format : UTF-8
Codec ID : S_TEXT/UTF8
Codec ID/Info : UTF-8 Plain Text
Duration : 1 h 35 min
Bit rate : 68 b/s
Count of elements : 987
Stream size : 47.8 KiB (0%)
Language : Russian
Default : No
Forced : No
Text #2
ID : 5
Format : UTF-8
Codec ID : S_TEXT/UTF8
Codec ID/Info : UTF-8 Plain Text
Duration : 1 h 39 min
Bit rate : 60 b/s
Count of elements : 1538
Stream size : 44.0 KiB (0%)
Language : English
Default : No
Forced : No
Text #3
ID : 6
Format : UTF-8
Codec ID : S_TEXT/UTF8
Codec ID/Info : UTF-8 Plain Text
Duration : 1 h 39 min
Bit rate : 61 b/s
Count of elements : 1606
Stream size : 44.5 KiB (0%)
Title : SDH
Language : English
Default : No
Forced : No
Text #4
ID : 7
Format : UTF-8
Codec ID : S_TEXT/UTF8
Codec ID/Info : UTF-8 Plain Text
Duration : 1 h 35 min
Bit rate : 41 b/s
Count of elements : 1013
Stream size : 29.1 KiB (0%)
Language : French
Default : No
Forced : No
Text #5
ID : 8
Format : UTF-8
Codec ID : S_TEXT/UTF8
Codec ID/Info : UTF-8 Plain Text
Duration : 1 h 35 min
Bit rate : 44 b/s
Count of elements : 1013
Stream size : 30.9 KiB (0%)
Title : España
Language : Spanish
Default : No
Forced : No
Text #6
ID : 9
Format : UTF-8
Codec ID : S_TEXT/UTF8
Codec ID/Info : UTF-8 Plain Text
Duration : 1 h 35 min
Bit rate : 48 b/s
Count of elements : 1010
Stream size : 33.9 KiB (0%)
Language : Portuguese
Default : No
Forced : No
Text #7
ID : 10
Format : UTF-8
Codec ID : S_TEXT/UTF8
Codec ID/Info : UTF-8 Plain Text
Duration : 1 h 35 min
Bit rate : 47 b/s
Count of elements : 1012
Stream size : 33.1 KiB (0%)
Language : Italian
Default : No
Forced : No
Menu
00:00:00.000 : en:Studio Logo
00:00:39.000 : en:Acknowledgement
00:00:44.000 : en:Doubt is there to be listened to
00:03:39.000 : en:Title Sequence
00:03:46.000 : en:Preparing for flight
00:09:54.000 : en:Flying over London
00:14:13.000 : en:James wants to makes a scientific impact
00:18:37.000 : en:The safest way is up
00:27:27.000 : en:The silence of the upper atmosphere
00:32:23.000 : en:A proposal to rewrite the rules of the air
00:40:14.000 : en:Opening up about Pierre
00:45:15.000 : en:The truth about fear and loss
00:52:51.000 : en:Risking everything to break records
00:59:09.000 : en:Facing her fear
01:02:04.000 : en:The truth about Pierre
01:07:17.000 : en:The dangers of thin air
01:15:26.000 : en:Waiting for the descent
01:23:13.000 : en:Bringing the stars closer
01:26:04.000 : en:Quick thinking to save lives
01:31:32.000 : en:All in the name of discovery
01:36:28.000 : en:End Credits
[Profile] [PM]
Display posts:    
Reply to topic

Current time is: 02-Apr 12:29

All times are UTC + 3



You cannot post new topics in this forum
You cannot reply to topics in this forum
You cannot edit your posts in this forum
You cannot delete your posts in this forum
You cannot vote in polls in this forum
You cannot attach files in this forum
You cannot download files in this forum