Любовь по расчёту / For Love or Money (The Revenger: An Unromantic Comedy) (2019) WEB-DL 720p | iTunes

Reply to topic
 
Author Message

Monk ®

Gender: Male

Longevity: 1 year 4 months

Posts: 10910

Location: Казань

Post 03-Feb-2020 02:51

[Quote]

Любовь по расчёту / For Love or Money (The Revenger: An Unromantic Comedy) Год выпуска: 2019
Жанр: Комедия
Выпущено: Великобритания, Goldfinch, Solar Productions
Режиссер: Марк Мерфи
В ролях: Роберт Казински, Саманта Баркс, Рэйчел Херд-Вуд, Эдвард Спелирс, Тони Вэй, Айван Кэй, Анна Чэнселлор, Дэвид Харгривз, Чарли МакДугалл, Тала Гувейя
О фильме: Марк собирается заработать 20 миллионов фунтов стерлингов от коммерческой сделки, которую он держит в секрете от всех, даже от своего лучшего друга Тима. Более того, случайная встреча на похоронах дала ему еще один шанс с любовью всей его жизни Конни. Сказочный роман приобретает неожиданный поворот, когда Марк узнает, что его будущая невеста, имеет корыстные намерения.
Качество: WEB-DL 720p
Видео: MPEG-4 AVC, 4078 Кбит/с, 1280x534
Аудио: Русский (AC3, 6 ch, 384 Кбит/с)
Продолжительность: 01:35:28
Перевод: Дублированный [iTunes]

Скриншоты


MediaInfo

Формат : Matroska
Версия формата : Version 4
Размер файла : 2,98 Гбайт
Продолжительность : 1 ч. 35 м.
Общий поток : 4464 Кбит/сек
Дата кодирования : UTC 2020-01-13 12:31:54
Программа кодирования : mkvmerge v8.3.0 ('Over the Horizon') 64bit
Библиотека кодирования : libebml v1.3.1 + libmatroska v1.4.2
Видео
Идентификатор : 1
Формат : AVC
Формат/Информация : Advanced Video Codec
Профиль формата : Main@L3.1
Настройки формата : 2 Ref Frames
Параметр CABAC формата : Нет
Параметр RefFrames формата : 2 кадра
Идентификатор кодека : V_MPEG4/ISO/AVC
Продолжительность : 1 ч. 35 м.
Битрейт : 4078 Кбит/сек
Ширина : 1280 пикселей
Высота : 534 пикселя
Соотношение сторон : 2,40:1
Режим частоты кадров : Постоянный
Частота кадров : 23,976 (24000/1001) кадра/сек
Цветовое пространство : YUV
Субдискретизация насыщенности : 4:2:0
Битовая глубина : 8 бит
Тип развёртки : Прогрессивная
Бит/(Пиксели*Кадры) : 0.249
Размер потока : 2,72 Гбайт (91%)
Заголовок : iTunes (ELEKTRI4KA.UNIONGANG)
Язык : English
Default : Да
Forced : Нет
Цветовой диапазон : Limited
Основные цвета : BT.709
Характеристики трансфера : BT.709
Коэффициенты матрицы : BT.709
Аудио
Идентификатор : 2
Формат : AC-3
Формат/Информация : Audio Coding 3
Коммерческое название : Dolby Digital
Идентификатор кодека : A_AC3
Продолжительность : 1 ч. 35 м.
Вид битрейта : Постоянный
Битрейт : 384 Кбит/сек
Каналы : 6 каналов
ChannelLayout : L R C LFE Ls Rs
Частота : 48,0 КГц
Частота кадров : 31,250 кадров/сек (1536 SPF)
Метод сжатия : С потерями
Размер потока : 262 Мбайт (9%)
Заголовок : iTunes (ELEKTRI4KA.UNIONGANG)
Язык : Russian
ServiceKind/String : Complete Main
Default : Да
Forced : Нет
Меню
00:00:00.000 : en:Глава 1
00:08:24.337 : en:Глава 2
00:16:26.485 : en:Глава 3
00:23:53.514 : en:Глава 4
00:32:34.743 : en:Глава 5
00:41:49.171 : en:Глава 6
00:50:16.136 : en:Глава 7
00:58:32.257 : en:Глава 8
01:06:55.760 : en:Глава 9
01:15:02.412 : en:Глава 10
01:23:34.006 : en:Глава 11
[Profile] [PM]
Display posts:    
Reply to topic

Current time is: 02-Apr 11:46

All times are UTC + 3



You cannot post new topics in this forum
You cannot reply to topics in this forum
You cannot edit your posts in this forum
You cannot delete your posts in this forum
You cannot vote in polls in this forum
You cannot attach files in this forum
You cannot download files in this forum