Обратный отсчет / Countdown (2019) BDRip 720p | iTunes

Reply to topic
 
Author Message

Monk ®

Gender: Male

Longevity: 1 year 4 months

Posts: 10910

Location: Казань

Post 03-Feb-2020 03:18

[Quote]

Обратный отсчет / Countdown Год выпуска: 2019
Жанр: Ужасы, триллер
Выпущено: США, Boies/Schiller Film Group, Wrigley Pictures
Режиссер: Джастин Дек
В ролях: Элизабет Лэил, Чарли МакДермотт, Питер Фачинелли, Джордан Кэллоуэй, Талита Бейтман, Диллон Лэйн, Тичина Арнольд, Том Сегура, Лана МакКиссак, Энн Уинтерс
О фильме: В наш век гаджетов и высоких технологий для всего есть мобильное приложение. Хочешь узнать, сколько тебе осталось жить? Пожалуйста! Девушка видит на экране телефона неумолимый вердикт - ее жизнь оборвется через 3 дня. Сможет ли она избежать смерти, если обратный отсчет уже начался?
Качество: BDRip 720p
Видео: MPEG-4 AVC, 5000 Кбит/с, 1280x536
Аудио: Русский (AC3, 6 ch, 384 Кбит/с), английский (AC3, 6 ch, 640 Кбит/с)
Продолжительность: 01:30:40
Перевод: Дублированный [iTunes]
Субтитры: Английские

Скриншоты



MediaInfo

General
Unique ID : 50391867722368165408066011439331880341 (0x25E91EE63227A480CF73D303ACFD2D95)
Complete name : E:\Video111\Countdown.2019.BDRip.720p.seleZen.mkv
Format : Matroska
Format version : Version 4
File size : 3.81 GiB
Duration : 1 h 30 min
Overall bit rate : 6 023 kb/s
Movie name : Countdown 2019 from селезень
Encoded date : UTC 2020-01-14 13:26:12
Writing application : mkvmerge v40.0.0 ('Old Town Road + Pony') 64-bit
Writing library : libebml v1.3.9 + libmatroska v1.5.2
Video
ID : 1
Format : AVC
Format/Info : Advanced Video Codec
Format profile : High@L4.1
Format settings : CABAC / 12 Ref Frames
Format settings, CABAC : Yes
Format settings, Reference : 12 frames
Codec ID : V_MPEG4/ISO/AVC
Duration : 1 h 30 min
Bit rate : 5 000 kb/s
Width : 1 280 pixels
Height : 536 pixels
Display aspect ratio : 2.40:1
Frame rate mode : Constant
Frame rate : 23.976 (24000/1001) FPS
Color space : YUV
Chroma subsampling : 4:2:0
Bit depth : 8 bits
Scan type : Progressive
Bits/(Pixel*Frame) : 0.304
Stream size : 3.16 GiB (83%)
Title : Encoded by seleZen
Writing library : x264 core 142 r2431+42 c69a006 tMod [8-bit@all X86_64]
Encoding settings : cabac=1 / ref=12 / deblock=1:-2:-2 / analyse=0x3:0x133 / me=umh / subme=10 / psy=1 / fade_compensate=0.00 / psy_rd=1.00:0.01 / mixed_ref=1 / me_range=32 / chroma_me=1 / trellis=2 / 8x8dct=1 / cqm=0 / deadzone=21,11 / fast_pskip=0 / chroma_qp_offset=-3 / threads=24 / lookahead_threads=4 / sliced_threads=0 / nr=0 / decimate=0 / interlaced=0 / bluray_compat=0 / constrained_intra=0 / fgo=0 / bframes=8 / b_pyramid=2 / b_adapt=2 / b_bias=0 / direct=3 / weightb=1 / open_gop=0 / weightp=2 / keyint=240 / keyint_min=23 / scenecut=40 / intra_refresh=0 / rc_lookahead=50 / rc=2pass / mbtree=0 / bitrate=5000 / ratetol=1.0 / qcomp=0.60 / qpmin=0:0:0 / qpmax=51:51:51 / qpstep=4 / cplxblur=20.0 / qblur=0.5 / vbv_maxrate=50000 / vbv_bufsize=62500 / nal_hrd=none / filler=0 / ip_ratio=1.40 / pb_ratio=1.30 / aq=3:0.80 / aq-sensitivity=10.00 / aq-factor=1.00:1.00:1.00 / aq2=0 / aq3=0
Language : English
Default : Yes
Forced : No
Audio #1
ID : 2
Format : AC-3
Format/Info : Audio Coding 3
Commercial name : Dolby Digital
Codec ID : A_AC3
Duration : 1 h 30 min
Bit rate mode : Constant
Bit rate : 384 kb/s
Channel(s) : 6 channels
Channel layout : L R C LFE Ls Rs
Sampling rate : 48.0 kHz
Frame rate : 31.250 FPS (1536 SPF)
Compression mode : Lossy
Stream size : 249 MiB (6%)
Title : iTunes
Language : Russian
Service kind : Complete Main
Default : Yes
Forced : Yes
Audio #2
ID : 3
Format : AC-3
Format/Info : Audio Coding 3
Commercial name : Dolby Digital
Codec ID : A_AC3
Duration : 1 h 30 min
Bit rate mode : Constant
Bit rate : 640 kb/s
Channel(s) : 6 channels
Channel layout : L R C LFE Ls Rs
Sampling rate : 48.0 kHz
Frame rate : 31.250 FPS (1536 SPF)
Compression mode : Lossy
Stream size : 415 MiB (11%)
Title : Original
Language : English
Service kind : Complete Main
Default : No
Forced : No
Text
ID : 4
Format : UTF-8
Codec ID : S_TEXT/UTF8
Codec ID/Info : UTF-8 Plain Text
Duration : 1 h 23 min
Bit rate : 53 b/s
Count of elements : 1096
Stream size : 32.7 KiB (0%)
Title : Full
Language : English
Default : No
Forced : No
Menu
00:00:00.000 : en:Глава 01
00:03:14.694 : en:Глава 02
00:08:07.028 : en:Глава 03
00:14:14.937 : en:Глава 04
00:18:02.999 : en:Глава 05
00:24:23.462 : en:Глава 06
00:31:47.989 : en:Глава 07
00:35:37.552 : en:Глава 08
00:39:21.943 : en:Глава 09
00:44:15.736 : en:Глава 10
00:47:26.177 : en:Глава 11
00:50:52.925 : en:Глава 12
00:55:49.304 : en:Глава 13
00:59:32.027 : en:Глава 14
01:07:01.059 : en:Глава 15
01:09:26.496 : en:Глава 16
01:15:02.456 : en:Глава 17
01:20:53.891 : en:Глава 18
01:22:54.261 : en:Глава 19
01:24:05.165 : en:Глава 20
[Profile] [PM]
Display posts:    
Reply to topic

Current time is: 02-Apr 13:24

All times are UTC + 3



You cannot post new topics in this forum
You cannot reply to topics in this forum
You cannot edit your posts in this forum
You cannot delete your posts in this forum
You cannot vote in polls in this forum
You cannot attach files in this forum
You cannot download files in this forum