Сиротский Бруклин / Motherless Brooklyn (2019) BDRip AVC | Лицензия

Reply to topic
 
Author Message

Monk ®

Gender: Male

Longevity: 1 year 4 months

Posts: 10910

Location: Казань

Post 03-Feb-2020 03:34

[Quote]

Сиротский Бруклин / Motherless Brooklyn Год выпуска: 2019
Жанр: Драма, криминал, детектив
Выпущено: США, Class 5 Films, Odd Lot Entertainment, Warner Bros. Pictures
Режиссер: Эдвард Нортон
В ролях: Эдвард Нортон, Гугу Мбата-Роу, Алек Болдуин, Бобби Каннавейл, Уиллем Дефо, Брюс Уиллис, Итэн Сапли, Черри Джонс, Даллас Робертс, Джош Пэйс, Раду Спингель, Фишер Стивенс, Питер Грэй Льюис, Роберт Уиздом, Майкл Кеннет Уильямс, Айзиа Дж. Томпсон
О фильме: Лайонел Эссрог, одинокий частный детектив с синдромом Туретта, решается начать расследование убийства своего наставника и единственного друга Фрэнка Минны. У него есть лишь несколько зацепок и сила разума, одержимого поставленной целью, чтобы распутать клубок тщательно скрываемых тайн, которые сохраняют баланс сил в самом Нью-Йорке. Расследование заводит его в джазовые клубы Гарлема, где рекой течет джин, опасные трущобы Бруклина и, наконец, позолоченные залы политической элиты мегаполиса. Он бросает вызов гангстерам, коррупции и самому опасному человеку в городе, чтобы очистить имя своего друга и спасти женщину, которая может спасти его самого.
Качество: BDRip AVC
Видео: MPEG-4 AVC, 1976 Kбит/с, 1024x554
Аудио: Русский, английский (AC3, 6 ch, 448 Кбит/с)
Продолжительность: 02:24:21
Перевод: Дублированный [Лицензия]
Субтитры: Русские, английские

Скриншоты



MediaInfo

Общее
Уникальный идентификатор : 249926533276654996425731298768934398745 (0xBC061974784E2285115FA4A0CC87EB19)
Полное имя : Motherless.Brooklyn.2019.Lic.x264.BDRip.2.89Gb.mkv
Формат : Matroska
Версия формата : Version 4
Размер файла : 2,89 Гбайт
Продолжительность : 2 ч. 24 м.
Общий поток : 2871 Кбит/сек
Название фильма : Сиротский Бруклин / Motherless Brooklyn (2019)
Дата кодирования : UTC 2020-03-23 10:08:56
Программа кодирования : mkvmerge v41.0.0 ('Smarra') 64-bit
Библиотека кодирования : libebml v1.3.9 + libmatroska v1.5.2
Обложка : Yes
Attachments : cover.jpg
Видео
Идентификатор : 1
Формат : AVC
Формат/Информация : Advanced Video Codec
Профиль формата : High@L4.1
Настройки формата : CABAC / 9 Ref Frames
Параметр CABAC формата : Да
Параметр RefFrames формата : 9 кадров
Идентификатор кодека : V_MPEG4/ISO/AVC
Продолжительность : 2 ч. 24 м.
Битрейт : 1976 Кбит/сек
Ширина : 1024 пикселя
Высота : 554 пикселя
Соотношение сторон : 1,85:1
Режим частоты кадров : Постоянный
Частота кадров : 23,976 кадра/сек
Цветовое пространство : YUV
Субдискретизация насыщенности : 4:2:0
Битовая глубина : 8 бит
Тип развёртки : Прогрессивная
Бит/(Пиксели*Кадры) : 0.145
Размер потока : 1,99 Гбайт (69%)
Заголовок : #stillet
Библиотека кодирования : x264 core 152 r2851bm ba24899
Настройки программы : cabac=1 / ref=9 / deblock=1:-3:-3 / analyse=0x3:0x113 / me=umh / subme=11 / psy=1 / psy_rd=1.00:0.15 / mixed_ref=1 / me_range=32 / chroma_me=1 / trellis=2 / 8x8dct=1 / cqm=0 / deadzone=21,11 / fast_pskip=0 / chroma_qp_offset=-3 / threads=8 / lookahead_threads=3 / sliced_threads=0 / nr=0 / decimate=0 / interlaced=0 / bluray_compat=0 / constrained_intra=0 / bframes=10 / b_pyramid=2 / b_adapt=2 / b_bias=0 / direct=3 / weightb=1 / open_gop=0 / weightp=2 / keyint=240 / keyint_min=23 / scenecut=40 / intra_refresh=0 / rc=2pass / mbtree=0 / bitrate=1976 / ratetol=1.0 / qcomp=0.60 / qpmin=0 / qpmax=69 / qpstep=4 / cplxblur=20.0 / qblur=0.5 / ip_ratio=1.40 / pb_ratio=1.30 / aq=1:1.00
Язык : English
Default : Да
Forced : Нет
Аудио #1
Идентификатор : 2
Формат : AC-3
Формат/Информация : Audio Coding 3
Коммерческое название : Dolby Digital
Идентификатор кодека : A_AC3
Продолжительность : 2 ч. 24 м.
Вид битрейта : Постоянный
Битрейт : 448 Кбит/сек
Каналы : 6 каналов
ChannelLayout : L R C LFE Ls Rs
Частота : 48,0 КГц
Частота кадров : 31,250 кадров/сек (1536 SPF)
Метод сжатия : С потерями
Размер потока : 463 Мбайт (16%)
Заголовок : Blu-ray EUR
Язык : Russian
ServiceKind/String : Complete Main
Default : Да
Forced : Нет
Аудио #2
Идентификатор : 3
Формат : AC-3
Формат/Информация : Audio Coding 3
Коммерческое название : Dolby Digital
Идентификатор кодека : A_AC3
Продолжительность : 2 ч. 24 м.
Вид битрейта : Постоянный
Битрейт : 448 Кбит/сек
Каналы : 6 каналов
ChannelLayout : L R C LFE Ls Rs
Частота : 48,0 КГц
Частота кадров : 31,250 кадров/сек (1536 SPF)
Метод сжатия : С потерями
Размер потока : 463 Мбайт (16%)
Язык : English
ServiceKind/String : Complete Main
Default : Нет
Forced : Нет
Текст #1
Идентификатор : 4
Формат : UTF-8
Идентификатор кодека : S_TEXT/UTF8
Идентификатор кодека/Информация : UTF-8 Plain Text
Продолжительность : 2 ч. 23 м.
Битрейт : 4 бит/сек
ElementCount : 71
Размер потока : 4,41 Кбайт (0%)
Заголовок : Forced
Язык : Russian
Default : Да
Forced : Да
Текст #2
Идентификатор : 5
Формат : UTF-8
Идентификатор кодека : S_TEXT/UTF8
Идентификатор кодека/Информация : UTF-8 Plain Text
Продолжительность : 2 ч. 23 м.
Битрейт : 135 бит/сек
ElementCount : 2356
Размер потока : 142 Кбайт (0%)
Заголовок : Full
Язык : Russian
Default : Нет
Forced : Нет
Текст #3
Идентификатор : 6
Формат : UTF-8
Идентификатор кодека : S_TEXT/UTF8
Идентификатор кодека/Информация : UTF-8 Plain Text
Продолжительность : 2 ч. 15 м.
Битрейт : 80 бит/сек
ElementCount : 2332
Размер потока : 80,4 Кбайт (0%)
Заголовок : Full
Язык : English
Default : Нет
Forced : Нет
Текст #4
Идентификатор : 7
Формат : UTF-8
Идентификатор кодека : S_TEXT/UTF8
Идентификатор кодека/Информация : UTF-8 Plain Text
Продолжительность : 2 ч. 16 м.
Битрейт : 84 бит/сек
ElementCount : 2463
Размер потока : 84,7 Кбайт (0%)
Заголовок : SDH
Язык : English
Default : Нет
Forced : Нет
Меню
00:00:00.000 : en:Chapter 01
00:09:57.847 : en:Chapter 02
00:19:20.326 : en:Chapter 03
00:29:14.586 : en:Chapter 04
00:38:47.575 : en:Chapter 05
00:46:33.958 : en:Chapter 06
00:54:01.822 : en:Chapter 07
01:02:12.604 : en:Chapter 08
01:08:42.618 : en:Chapter 09
01:17:48.205 : en:Chapter 10
01:26:55.919 : en:Chapter 11
01:34:07.350 : en:Chapter 12
01:41:25.705 : en:Chapter 13
01:50:29.289 : en:Chapter 14
02:00:21.005 : en:Chapter 15
02:07:02.824 : en:Chapter 16
02:17:16.603 : en:Chapter 17
[Profile] [PM]
Display posts:    
Reply to topic

Current time is: 02-Apr 12:17

All times are UTC + 3



You cannot post new topics in this forum
You cannot reply to topics in this forum
You cannot edit your posts in this forum
You cannot delete your posts in this forum
You cannot vote in polls in this forum
You cannot attach files in this forum
You cannot download files in this forum