Шахта 9 / Mine 9 (2019) BDRip 1080p | LakeFilms

Reply to topic
 
Author Message

Monk ®

Gender: Male

Longevity: 1 year 4 months

Posts: 10910

Location: Казань

Post 03-Feb-2020 03:47

[Quote]

Шахта 9 / Mine 9 Год выпуска: 2019
Жанр: Драма
Выпущено: США, Emphatic Films, Autumn Bailey Entertainment
Режиссер: Эдди Менсор
В ролях: Терри Серпико, Марк Эшворт, Кевин Сайзмор, Клинт Джеймс, Дрю Старки, Эрин Элизабет Барнс, Альфа Триветт, Френсин Лок, Элизабет Хьюстон, Энни Трэш
О фильме: Девять шахтёров борются за жизнь, находясь в двух милях под землей, ведь после взрыва метана запаса кислорода хватит лишь на час...
Качество: BDRip 1080p
Видео: MPEG-4 AVC, 8710 Кбит/с, 1920x1080
Аудио: Русский (AC3, 2 ch, 192 Кбит/с), английский (AC3, 6 ch, 640 Кбит/с)
Продолжительность: 01:23:37
Перевод: Любительский двухголосый [LakeFilms]

Скриншоты



MediaInfo

Общее
Уникальный идентификатор : 237811196686548265946403880621919052305 (0xB2E8C53E3CCB8A3A7E3D06B6804E2211)
Полное имя : L:\{FullHD} Шахта 9\Mine.9.2019.1080p.BluRay.x264-RU.EN[EtHD].mkv
Формат : Matroska
Версия формата : Version 4
Размер файла : 5,56 Гбайт
Продолжительность : 1 ч. 23 м.
Общий поток : 9514 Кбит/сек
Дата кодирования : UTC 2020-01-19 18:12:01
Программа кодирования : mkvmerge v37.0.0 ('Leave It') 64-bit
Библиотека кодирования : libebml v1.3.9 + libmatroska v1.5.2
Видео
Идентификатор : 1
Формат : AVC
Формат/Информация : Advanced Video Codec
Профиль формата : High@L4.1
Настройки формата : CABAC / 4 Ref Frames
Параметр CABAC формата : Да
Параметр RefFrames формата : 4 кадра
Идентификатор кодека : V_MPEG4/ISO/AVC
Продолжительность : 1 ч. 23 м.
Битрейт : 8710 Кбит/сек
Ширина : 1920 пикселей
Высота : 1080 пикселей
Соотношение сторон : 16:9
Режим частоты кадров : Постоянный
Частота кадров : 23,976 (24000/1001) кадра/сек
Цветовое пространство : YUV
Субдискретизация насыщенности : 4:2:0
Битовая глубина : 8 бит
Тип развёртки : Прогрессивная
Бит/(Пиксели*Кадры) : 0.175
Размер потока : 5,07 Гбайт (91%)
Заголовок : Mine.9.2019.1080p.BluRay.x264-AAA
Библиотека кодирования : x264 core 157 r2969 d4099dd
Настройки программы : cabac=1 / ref=4 / deblock=1:0:0 / analyse=0x3:0x113 / me=umh / subme=8 / psy=1 / psy_rd=1.00:0.00 / mixed_ref=1 / me_range=16 / chroma_me=1 / trellis=1 / 8x8dct=1 / cqm=0 / deadzone=21,11 / fast_pskip=1 / chroma_qp_offset=-2 / threads=16 / lookahead_threads=2 / sliced_threads=0 / nr=0 / decimate=1 / interlaced=0 / bluray_compat=0 / constrained_intra=0 / bframes=3 / b_pyramid=2 / b_adapt=2 / b_bias=0 / direct=3 / weightb=1 / open_gop=0 / weightp=2 / keyint=240 / keyint_min=23 / scenecut=40 / intra_refresh=0 / rc_lookahead=50 / rc=2pass / mbtree=1 / bitrate=8710 / ratetol=1.0 / qcomp=0.60 / qpmin=0 / qpmax=69 / qpstep=4 / cplxblur=20.0 / qblur=0.5 / ip_ratio=1.40 / aq=1:1.00
Default : Да
Forced : Нет
Аудио #1
Идентификатор : 2
Формат : AC-3
Формат/Информация : Audio Coding 3
Коммерческое название : Dolby Digital
Идентификатор кодека : A_AC3
Продолжительность : 1 ч. 23 м.
Вид битрейта : Постоянный
Битрейт : 192 Кбит/сек
Каналы : 2 канала
ChannelLayout : L R
Частота : 48,0 КГц
Частота кадров : 31,250 кадров/сек (1536 SPF)
Метод сжатия : С потерями
Размер потока : 115 Мбайт (2%)
Заголовок : RUS (LakeFilms)
Язык : Russian
ServiceKind/String : Complete Main
Default : Да
Forced : Да
Аудио #2
Идентификатор : 3
Формат : AC-3
Формат/Информация : Audio Coding 3
Коммерческое название : Dolby Digital
Идентификатор кодека : A_AC3
Продолжительность : 1 ч. 23 м.
Вид битрейта : Постоянный
Битрейт : 640 Кбит/сек
Каналы : 6 каналов
ChannelLayout : L R C LFE Ls Rs
Частота : 48,0 КГц
Частота кадров : 31,250 кадров/сек (1536 SPF)
Метод сжатия : С потерями
Размер потока : 383 Мбайт (7%)
Заголовок : EN
Язык : English
ServiceKind/String : Complete Main
Default : Нет
Forced : Нет
Меню
00:00:00.000 : :Chapter 01
00:06:27.262 : :Chapter 02
00:09:44.459 : :Chapter 03
00:14:18.775 : :Chapter 04
00:17:08.319 : :Chapter 05
00:20:35.151 : :Chapter 06
00:28:33.837 : :Chapter 07
00:36:03.661 : :Chapter 08
00:39:08.555 : :Chapter 09
00:43:19.764 : :Chapter 10
00:46:51.559 : :Chapter 11
00:49:57.494 : :Chapter 12
00:55:18.065 : :Chapter 13
01:03:58.334 : :Chapter 14
01:07:23.414 : :Chapter 15
01:10:28.558 : :Chapter 16
[Profile] [PM]
Display posts:    
Reply to topic

Current time is: 02-Apr 11:35

All times are UTC + 3



You cannot post new topics in this forum
You cannot reply to topics in this forum
You cannot edit your posts in this forum
You cannot delete your posts in this forum
You cannot vote in polls in this forum
You cannot attach files in this forum
You cannot download files in this forum