Портрет девушки в огне / Portrait de la jeune fille en feu (2019) HDRip | iTunes

Reply to topic
 
Author Message

Monk ®

Gender: Male

Longevity: 1 year 4 months

Posts: 10910

Location: Казань

Post 03-Feb-2020 03:51

[Quote]

Портрет девушки в огне / Portrait de la jeune fille en feu Год выпуска: 2019
Жанр: Драма
Выпущено: Франция, Lilies Films, Arte France Cinéma, Hold Up Films
Режиссер: Селин Сьямма
В ролях: Ноэми Мерлан, Адель Энель, Луана Байрами, Валерия Голино, Кристель Барас, Арман Буланжер, Ги Деламарш, Клеман Буассу, Мишель Клеман, Сесиль Морел
О фильме: Бретань, 1770. Марианна, художница, приезжает в имение на побережье, чтобы написать портрет дочери его владелицы - Элоизы. Картина нужна, чтобы отправить жениху Элоизы в Милан. В знак протеста против замужества девушка отказывается позировать, и гостью представляют как компаньонку для прогулок. Проводя все больше времени вместе, девушки начинают чувствовать взаимное притяжение.
Качество: HDRip
Видео: XviD, 1788 Кбит/с, 720x384
Аудио: Русский, французский (AC3, 6 ch, 384 Кбит/с)
Продолжительность: 02:01:10
Перевод: Дублированный [iTunes]
Субтитры: Русские

Скриншоты


MediaInfo

Формат : AVI
Формат/Информация : Audio Video Interleave
Профиль формата : OpenDML
Размер файла : 2,18 Гбайт
Продолжительность : 2 ч. 1 м.
Общий поток : 2574 Кбит/сек
Название фильма : Портрет девушки в огне_2019_HDRip
Программа кодирования : VirtualDubMod 1.5.10.3 | www.virtualdub-fr.org || (build 2550/release)
Авторское право : порошков
Видео
Идентификатор : 0
Формат : MPEG-4 Visual
Профиль формата : Advanced Simple@L5
Настройки формата : BVOP1 / Custom Matrix
Параметр BVOP формата : 1
Параметр QPel формата : Нет
Параметр GMC формата : Без точки перехода
Параметр матрицы формата : Выборочная
Идентификатор кодека : XVID
Идентификатор кодека/Подсказка : XviD
Продолжительность : 2 ч. 1 м.
Битрейт : 1788 Кбит/сек
Ширина : 720 пикселей
Высота : 384 пикселя
Соотношение сторон : 1,85:1
Частота кадров : 24,000 кадра/сек
Цветовое пространство : YUV
Субдискретизация насыщенности : 4:2:0
Битовая глубина : 8 бит
Тип развёртки : Прогрессивная
Метод сжатия : С потерями
Бит/(Пиксели*Кадры) : 0.269
Размер потока : 1,51 Гбайт (69%)
Библиотека кодирования : XviD 73
Аудио #1
Идентификатор : 1
Формат : AC-3
Формат/Информация : Audio Coding 3
Коммерческое название : Dolby Digital
Идентификатор кодека : 2000
Продолжительность : 2 ч. 1 м.
Вид битрейта : Постоянный
Битрейт : 384 Кбит/сек
Каналы : 6 каналов
ChannelLayout : L R C LFE Ls Rs
Частота : 48,0 КГц
Частота кадров : 31,250 кадров/сек (1536 SPF)
Метод сжатия : С потерями
Размер потока : 333 Мбайт (15%)
Выравнивание : Разделение по промежуткам
Продолжительность промежутка : 42 мс. (1,00 видеокадр)
Время предзагрузки промежутка : 500 мс.
Заголовок : rus
ServiceKind/String : Complete Main
Аудио #2
Идентификатор : 2
Формат : AC-3
Формат/Информация : Audio Coding 3
Коммерческое название : Dolby Digital
Идентификатор кодека : 2000
Продолжительность : 2 ч. 1 м.
Вид битрейта : Постоянный
Битрейт : 384 Кбит/сек
Каналы : 6 каналов
ChannelLayout : L R C LFE Ls Rs
Частота : 48,0 КГц
Частота кадров : 31,250 кадров/сек (1536 SPF)
Метод сжатия : С потерями
Размер потока : 333 Мбайт (15%)
Выравнивание : Разделение по промежуткам
Продолжительность промежутка : 42 мс. (1,00 видеокадр)
Время предзагрузки промежутка : 500 мс.
Заголовок : fra
ServiceKind/String : Complete Main
[Profile] [PM]
Display posts:    
Reply to topic

Current time is: 02-Apr 11:18

All times are UTC + 3



You cannot post new topics in this forum
You cannot reply to topics in this forum
You cannot edit your posts in this forum
You cannot delete your posts in this forum
You cannot vote in polls in this forum
You cannot attach files in this forum
You cannot download files in this forum