Discovery. Ржавая империя / Junkyard Empire [3 сезон: 1-12 серии из 12] (2017) HDTVRip от GeneralFilm

Reply to topic
 
Author Message

Starik60 ®

Gender: Male

Longevity: 11 months 10 days

Posts: 171

Location: Москва, Россия

Post 05-Dec-2018 11:32

[Quote]

Ржавая империя / Junkyard Empire
Год выпуска: 2017
Жанр: Документальный, автомобилестроение
Выпущено: США, Discovery Channel
В ролях: Энди Коэн
О фильме: Отец и сын Коэны – мастера на все руки и владельцы нескольких перспективных автосервисов. Им удалось найти необычный способ заработать: предприимчивые американцы дают вторую жизнь технике, списанной в утиль. Энди Коэн, автолюбитель, амбициозный лидер и фанат экстрима – владелец известного в США автосервиса, который решил дать новую жизнь старым автомобилям, списанным на свалку. Коэн готов превратить любую проржавевшую развалюху в амбициозный проект и произведение искусства, которое всегда будет привлекать внимание на дорогах. В дело идёт всё: старые мотоциклы, моторные лодки, тяжёлое оборудование – своё богатство Энди ищет и находит в самых неожиданных местах. Запчасти и каркасы автомобилей он выкупает из полицейского конфиската, на частных аукционах и даже у случайных посетителей автосервиса.

Качество: HDTVRip
Видео: XviD, ~ 1900 Кбит/с, 720x400
Аудио: AC3, 2 ch, 192 Кбит/c
Продолжительность: 12 x ~ 00:44:00
Перевод: Профессиональный (одноголосый, закадровый)

Скриншоты


MediaInfo

General
Complete name : H:\Раздачи 3\Ржавая империя S03 GeneralFilm\01 Ржавая империя GemeralFilm.avi
Format : AVI
Format/Info : Audio Video Interleave
File size : 660 MiB
Duration : 43 min 55 s
Overall bit rate : 2 102 kb/s
Writing application : VirtualDubMod 1.5.10.3 | www.virtualdub-fr.org || (build 2550/release)
Writing library : VirtualDubMod build 2550/release
Video
ID : 0
Format : MPEG-4 Visual
Format profile : Advanced Simple@L5
Format settings : BVOP1 / Custom Matrix
Format settings, BVOP : 1
Format settings, QPel : No
Format settings, GMC : No warppoints
Format settings, Matrix : Custom
Codec ID : XVID
Codec ID/Hint : XviD
Duration : 43 min 55 s
Bit rate : 1 900 kb/s
Width : 720 pixels
Height : 400 pixels
Display aspect ratio : 16:9
Frame rate : 25.000 FPS
Color space : YUV
Chroma subsampling : 4:2:0
Bit depth : 8 bits
Scan type : Progressive
Compression mode : Lossy
Bits/(Pixel*Frame) : 0.264
Stream size : 597 MiB (90%)
Writing library : XviD 1.2.1 (UTC 2008-12-04)
Audio
ID : 1
Format : AC-3
Format/Info : Audio Coding 3
Commercial name : Dolby Digital
Codec ID : 2000
Duration : 43 min 55 s
Bit rate mode : Constant
Bit rate : 192 kb/s
Channel(s) : 2 channels
Channel layout : L R
Sampling rate : 48.0 kHz
Frame rate : 31.250 FPS (1536 SPF)
Bit depth : 16 bits
Compression mode : Lossy
Stream size : 60.3 MiB (9%)
Alignment : Split accross interleaves
Interleave, duration : 40 ms (1.00 video frame)
Interleave, preload duratio : 500 ms
Service kind : Complete Main

Название серий

01. Свалка и бандит.
02. Игра с огнем.
03. Бешеный Бронко.
04. Гений со свалки.
05. Коэн против "Камаро".
06. Легендарный пейс-кар.
07. Ремонт машин и побитые рекорды.
08. Бриллианты в мусоре.
09. Турбо и задние двери.
10. Один из двух.
11. Аварии и имена.
12. Рэд-род и Жук.
Благодарю за отличный постер ValkiriaGF
Релиз от:
[Profile] [PM]
Display posts:    
Reply to topic

Current time is: 23-Oct 08:34

All times are UTC + 3



You cannot post new topics in this forum
You cannot reply to topics in this forum
You cannot edit your posts in this forum
You cannot delete your posts in this forum
You cannot vote in polls in this forum
You cannot attach files in this forum
You cannot download files in this forum