Discovery. Лучший моделист / Die Modellbauer Das Duell [1 сезон: 1-6 серии из 6] (2014) HDTVRip 720р от GeneralFilm

Reply to topic
 
Author Message

Starik60 ®

Gender: Male

Longevity: 11 months 10 days

Posts: 171

Location: Москва, Россия

Post 06-Dec-2018 13:23

[Quote]

Лучший моделист / Die Modellbauer Das Duell
Год выпуска: 2014
Жанр: Документальный, моделирование
Выпущено: Германия, Discovery Channel
О фильме: Кто сказал, что создание моделей – это не азартный спорт? Герои нашей новой программы «Лучший моделист» готовы с этим поспорить! Они берутся за сложные задания, чтобы обойти соперника и получить главный приз. В ходе телепередачи мы проследим за соревнованиями лучших моделистов из Германии − специалистов в определенной области. Каждый из двоих участников получает задание построить модель одного и того же типа: мощных грузовиков, реактивных самолётов на керосине или быстроходных судов, развивающих скорость до 120 км/ч. В распоряжении соперников всего полгода и 1000 евро, чтобы создать идеальную модель, которая потрясет жюри. В финале на слёте моделистов им предстоит защитить свой проект и услышать имя победителя. Кто станет первым в этом творческом состязании?
Качество: HDTVRip 720p
Видео: MPEG-4 AVC, ~ 4000 Кбит/с, 1280x720
Аудио: MP2, 2 ch, 192 Кбит/с
Продолжительность: 6 х ~ 00:44:00
Перевод: Профессиональный (одноголосый, закадровый)

Скриншоты



MediaInfo

General
Unique ID : 213056357206153318554066049911989729206 (0xA049296CF09692F4EB6299D177BFF7B6)
Complete name : H:\Раздачи 3\Лучший моделист s01 720p GeneralFilm\01 Лучший моделист GeneralFilm.mkv
Format : Matroska
Format version : Version 2
File size : 1.28 GiB
Duration : 43 min 38 s
Overall bit rate mode : Constant
Overall bit rate : 4 198 kb/s
Writing application : Lavf54.63.104
Writing library : Lavf54.63.104
Video
ID : 1
Format : AVC
Format/Info : Advanced Video Codec
Format profile : High@L4.1
Format settings : CABAC / 3 Ref Frames
Format settings, CABAC : Yes
Format settings, ReFrames : 3 frames
Codec ID : V_MPEG4/ISO/AVC
Duration : 43 min 38 s
Bit rate mode : Constant
Bit rate : 4 000 kb/s
Width : 1 280 pixels
Height : 720 pixels
Display aspect ratio : 16:9
Frame rate mode : Constant
Frame rate : 50.000 FPS
Standard : PAL
Color space : YUV
Chroma subsampling : 4:2:0
Bit depth : 8 bits
Scan type : Progressive
Bits/(Pixel*Frame) : 0.087
Stream size : 1.20 GiB (93%)
Default : No
Forced : No
Color range : Limited
Color primaries : BT.709
Transfer characteristics : BT.709
Matrix coefficients : BT.709
Audio
ID : 2
Format : MPEG Audio
Format version : Version 1
Format profile : Layer 2
Codec ID : A_MPEG/L2
Codec ID/Hint : MP2
Duration : 43 min 38 s
Bit rate mode : Constant
Bit rate : 192 kb/s
Channel(s) : 2 channels
Sampling rate : 48.0 kHz
Compression mode : Lossy
Delay relative to video : 24 ms
Stream size : 59.9 MiB (5%)
Language : English
Default : Yes
Forced : No
Благодарю за отличный постер ValkiriaGF
Релиз от:
[Profile] [PM]
Display posts:    
Reply to topic

Current time is: 23-Oct 08:19

All times are UTC + 3



You cannot post new topics in this forum
You cannot reply to topics in this forum
You cannot edit your posts in this forum
You cannot delete your posts in this forum
You cannot vote in polls in this forum
You cannot attach files in this forum
You cannot download files in this forum