Смешарики. Новый сезон [1-53 серии из 53] (2020-2021) WEB-DLRip от GeneralFilm

Reply to topic
 
Author Message

vsobbol ®

Gender: Male

Longevity: 2 years 11 months

Posts: 761

Location: Донецк

Post 06-Jun-2020 19:09

[Quote]

Смешарики
Год выпуска: 2020-2021
Жанр: Мультфильм, детский
Выпущено: Россия, Студия анимации «Петербург»
Режиссер: Денис Чернов, Илья Максимов, Константин Бирюков, Джангир Сулейманов, Андрей Колпин, Артур Толстобров, Сергей Гордеев, Алексей Минченок, Михаил Мещанинов, Роман Соколов, Наталья Мирзоян, Олег Мусин, Ал
В ролях: Вадим Бочанов, Антон Виноградов, Сергей Мардарь, Владимир Постников, Светлана Письмиченко, Михаил Черняк, Владимир Маслаков, Максим Сергеев, Игорь Яковель, Денис Чернов
О фильме: Зрителей ждет встреча с давно знакомыми и любимыми героями: интеллигентным Ежиком, лосем Лосяшем, медведем Копатычем, артистом Кар-Карычем, мудрой Совуньей, пингвином Пином, свинкой Нюшей, кроликом Крошем, поэтом Барашем. Компания друзей, как обычно, попадает в интересные и поучительные приключения и жизненные ситуации, которые знакомы каждому. Истории о дружбе и приключениях обаятельных круглых героев. Весёлые и музыкальные, неожиданные и мечтательные, домашние и авантюрные. Целый мир в одной уютной ромашковой долине.
Качество: WEB-DLRip
Видео: XviD build 73, 720x400 (16:9), 25.000 fps, ~ 1600 Kbps (~ 0.185 bit/pixel)
Аудио: 48.0 kHz, MP3, 2/0 ch, 192 kbps
Продолжительность: 53 x ~ 00:06:40
Перевод / Озвучка: Не требуется [Русский]
Cубтитры: нет

Скриншоты

MediaInfo

General
Complete name : D:\Razdachi\Smeshariki.2020.WEB-DLRip.GeneralFilm\E01.Prirodnoe.Svojstvo.avi
Format : AVI
Format/Info : Audio Video Interleave
File size : 85.9 MiB
Duration : 6 min 39 s
Overall bit rate : 1 806 kb/s
Writing application : VirtualDubMod 1.5.10.3 | www.virtualdub-fr.org || (build 2550/release)
Writing library : VirtualDubMod build 2550/release
Video
ID : 0
Format : MPEG-4 Visual
Format profile : Advanced Simple@L5
Format settings : BVOP1 / Custom Matrix
Format settings, BVOP : 1
Format settings, QPel : No
Format settings, GMC : No warppoints
Format settings, Matrix : Custom
Codec ID : XVID
Codec ID/Hint : XviD
Duration : 6 min 39 s
Bit rate : 1 602 kb/s
Width : 720 pixels
Height : 400 pixels
Display aspect ratio : 16:9
Frame rate : 30.000 FPS
Color space : YUV
Chroma subsampling : 4:2:0
Bit depth : 8 bits
Scan type : Progressive
Compression mode : Lossy
Bits/(Pixel*Frame) : 0.185
Stream size : 76.2 MiB (89%)
Writing library : XviD 73
Audio
ID : 1
Format : MPEG Audio
Format version : Version 1
Format profile : Layer 3
Codec ID : 55
Codec ID/Hint : MP3
Duration : 6 min 39 s
Bit rate mode : Constant
Bit rate : 192 kb/s
Channel(s) : 2 channels
Sampling rate : 48.0 kHz
Frame rate : 41.667 FPS (1152 SPF)
Compression mode : Lossy
Stream size : 9.13 MiB (11%)
Alignment : Aligned on interleaves
Interleave, duration : 33 ms (1.00 video frame)
Interleave, preload duratio : 504 ms
Writing library : LAME3.99r
Encoding settings : -m s -V 4 -q 2 -lowpass 18.6 -b 19

Список серий:

01 серия. Природное свойство
02 серия. Спокойной ночи
03 серия. Мастер и земляника
04 серия. Сплетники
05 серия. Рок-опера и что-то ещё
06 серия. Пинляндия
07 серия. Великий мимикрятор
08 серия. Вальхалла
09 серия. Любимый внук
10 серия. Домашнее животное
11 серия. Фан-клуб Козетты
12 серия. Фонтан
13 серия. Ясень-пень
14 серия. Фотография
15 серия. Табу
16 серия. У вас недостаточно памяти
17 серия. Волшебный кувшинчик
18 серия. Скатерть-самозванка
19 серия. Юристы
20 серия. Буревестник
21 серия. 1001 гвоздь
22 серия. Стальное сердце
23 серия. Виноватый
24 серия. Телепат
25 серия. Жизнь на облаке
26 серия. Сила бездействия
27 серия. Винтики
28 серия. Починили
29 серия. Клуб разбитых сердец
30 серия. Золотой век
31 серия. Эмигрант. Часть 1
32 серия. Заг
33 серия. Загвоздка
34 серия. Старинный новогодний обычай
35 серия. Бирюльки
36 серия. Стюардесса
37 серия. Эмигрант. Часть 2
38 серия. Женские секреты
39 серия. Карантин
40 серия. Камыши
41 серия. Нервный и заразный
42 серия. Сказки
43 серия. Лекарство от всего
44 серия. Здравствуй, мой дневничок!
45 серия. Подходящий момент
46 серия. Меткая стрела
47 серия. Оракул
48 серия. Справочное бюро
49 серия. Аленький цветочек
50 серия. Традиция
51 серия. Вертикальная серия. Паранормальное приключение
52 серия. Лучший отдых
53 серия. Мне - мёд, тебе - приключения
Релиз от:
[Profile] [PM]
Display posts:    
Reply to topic

Current time is: 19-Oct 09:03

All times are UTC + 3



You cannot post new topics in this forum
You cannot reply to topics in this forum
You cannot edit your posts in this forum
You cannot delete your posts in this forum
You cannot vote in polls in this forum
You cannot attach files in this forum
You cannot download files in this forum