Discovery. Уличные войны / Street Justice: The Bronx [1-3 серии из 3] (2017) HDTVRip 720p от GeneralFilm

Reply to topic
 
Author Message

Starik60 ®

Gender: Male

Longevity: 11 months 10 days

Posts: 171

Location: Москва, Россия

Post 09-Dec-2018 15:24

[Quote]

Уличные войны / Street Justice: The Bronx
Год выпуска: 2017
Жанр: Документальный, криминал, расследование, история
Выпущено: США, Discovery Communications, LLC.
В ролях: Ральф Фридман
О фильме: Легендарный нью-йоркский полицейский Ральф Фридман за время работы в Южном Бронксе, самом криминогенном районе города, раскрыл более тысячи преступлений. В период разгула преступности в 1970–1980-х годах местный полицейский участок даже получил прозвище «Форт Апачи», потому что напоминал собой укрепленную крепость на неприятельской территории. Ральф Фридман расследовал самые трудные и запутанные убийства, задерживал отпетых бандитов по наводке подсадных агентов и участвовал в перестрелках с матёрыми преступниками. И теперь один из самых крутых полицейских Нью-Йорка готов раскрыть секреты своей непростой работы!

Качество: HDTVRip 720p
Видео: MPEG-4 AVC, ~ 4000 Кбит/с, 1280x720
Аудио: MP2, 2 ch, 192 Кбит/с
Продолжительность: 3 х ~ 00:44:00
Перевод: Профессиональный (одноголосый, закадровый)

Скриншоты



MediaInfo

General
Unique ID : 328981923196456782094613921102734730347 (0xF77F9D1BBEE639AD9083A9B22C16A46B)
Complete name : H:\Раздачи 3\Уличные войны 720p GeneralFilm\01 Уличные войны GeneralFilm.mkv
Format : Matroska
Format version : Version 2
File size : 1.28 GiB
Duration : 43 min 37 s
Overall bit rate mode : Constant
Overall bit rate : 4 198 kb/s
Writing application : Lavf54.63.104
Writing library : Lavf54.63.104
Video
ID : 1
Format : AVC
Format/Info : Advanced Video Codec
Format profile : High@L4.1
Format settings : CABAC / 3 Ref Frames
Format settings, CABAC : Yes
Format settings, ReFrames : 3 frames
Codec ID : V_MPEG4/ISO/AVC
Duration : 43 min 37 s
Bit rate mode : Constant
Bit rate : 4 000 kb/s
Width : 1 280 pixels
Height : 720 pixels
Display aspect ratio : 16:9
Frame rate mode : Constant
Frame rate : 50.000 FPS
Standard : PAL
Color space : YUV
Chroma subsampling : 4:2:0
Bit depth : 8 bits
Scan type : Progressive
Bits/(Pixel*Frame) : 0.087
Stream size : 1.20 GiB (93%)
Default : No
Forced : No
Color range : Limited
Color primaries : BT.709
Transfer characteristics : BT.709
Matrix coefficients : BT.709
Audio
ID : 2
Format : MPEG Audio
Format version : Version 1
Format profile : Layer 2
Codec ID : A_MPEG/L2
Codec ID/Hint : MP2
Duration : 43 min 37 s
Bit rate mode : Constant
Bit rate : 192 kb/s
Channel(s) : 2 channels
Sampling rate : 48.0 kHz
Compression mode : Lossy
Delay relative to video : 24 ms
Stream size : 59.9 MiB (5%)
Language : English
Default : Yes
Forced : No
Благодарю за отличный постер ValkiriaGF
Релиз от:
[Profile] [PM]
Display posts:    
Reply to topic

Current time is: 23-Oct 08:15

All times are UTC + 3



You cannot post new topics in this forum
You cannot reply to topics in this forum
You cannot edit your posts in this forum
You cannot delete your posts in this forum
You cannot vote in polls in this forum
You cannot attach files in this forum
You cannot download files in this forum