Discovery. Уличная наука / Street Science [2 сезон: 1-14 серий из 14] (2017) HDTVRip 720p от GeneralFilm

Reply to topic
 
Author Message

Starik60 ®

Gender: Male

Longevity: 11 months 10 days

Posts: 171

Location: Москва, Россия

Post 09-Dec-2018 16:40

[Quote]

Уличная наука / Street Science
Год выпуска: 2017
Жанр: Документальный, наука, тв шоу
Выпущено: США, Discovery Channel
О фильме: Кевин Дилейни – настоящий научный маг. Он превращает городские улицы в свою лабораторию, чтобы продемонстрировать прохожим невероятные опыты с использованием химии, огня и взрывов. При этом каждый эксперимент можно рассмотреть в мельчайших деталях, ведь друг Кевина Даррен снимает их на сверхскоростную камеру. Для научного гуру нет ничего невозможного: он легко создаёт искусственный огненный смерч, превращает садовый пылесос в судно на воздушной подушке, мгновенно перевоплощается в облако азота и доказывает, что перекись азота можно использовать самым необычным образом.

Качество: HDTVRip 720p
Видео: MPEG-4 AVC, ~ 4000 Кбит/с, 1280x720
Аудио: MP2, 2 ch, 192 Кбит/с
Продолжительность: 14 х ~ 00:22:00
Перевод: Профессиональный (одноголосый, закадровый)

Скриншоты



MediaInfo

Генерал
Уникальный идентификатор: 56802383158153931235841394739315805304 (0x2abbbb659818d3015e97b782a790c78)
Полное имя : H:\Раздачи 3\Уличная наука С02 720р GeneralFilm\01 Уличная наука GeneralFilm.mkv
Формат: Матроска
Версия формата: Версия 2
Размер файла: 671 MiB
Продолжительность : 22 мин 21 сек
Общий режим битовой скорости: постоянн
Общий битрейт : 4 197 кб/с
Письменное заявление: Lavf54.63.104
Библиотека письма: Lavf54.63.104
Видео
ID: 1
Формат: AVC
Формат / Информация: Расширенный Видеокодек
Формат профиля : High@L4.1
Настройки формата: CABAC / 3 Ref Frames
Настройки формата, CABAC: да
Настройки формата, Рефреймы: 3 кадра
Кодек ID: V_MPEG4 / ISO / AVC
Продолжительность : 22 мин 21 сек
Режиме битрейта : постоянный
Битрейт : 4 000 кб/с
Ширина : 1 280 пикселей
Высота : 720 пикселей
Дисплей соотношение сторон: 16: 9
Режим частоты кадров : постоянный
Частота кадров: 50.000 FPS
Стандарт: PAL
Цветовое пространство: YUV
Подвыборка цветности : 4:2:0
Разрядность: 8 бит
Тип развертки : прогрессивная
Бит/(Пиксель*Кадр) : 0.087
Размер потока: 627 MiB (93%)
По Умолчанию: No
Принудительный: Нет
Цветовая гамма: ограниченная
Цвет праймериз: BT.Семьсот девять
Характеристики передачи: BT.Семьсот девять
Коэффициенты матрицы: BT.Семьсот девять
Звуковой
ID: 2
Формат: аудио MPEG
Версия формата: Версия 1
Профиль формата: Layer 2
Кодек ID : A_MPEG / L2
Кодек ID / подсказка: MP2
Продолжительность : 22 мин 21 сек
Режиме битрейта : постоянный
Битрейт : 192 кб/с
Канал(ы) : 2 каналы
Частота дискретизации : 48.0 кГц
Режим сжатия : с потерями
Задержка относительно Видео: 24 мс
Размер потока: 30.7 MiB (5%)
Язык : Английский
По Умолчанию: Yes
Принудительный: Нет

Название серий

01. Запуск огненных шаров.
02. Человек-снаряд.
03. Силы природы.
04. Растяжение и разрушение.
05. Домашняя молния.
06. Сверхмощный клей.
07. Огненный меч.
08. Неукротимый огонь.
09. Голливудские взрывы.
10. Повелители огня.
11. Огромный водяной пистолет.
12. Адская дуэль.
13. Автохаос.
14. Опасность падения.
Благодарю за отличный постер ValkiriaGF
Релиз от:
[Profile] [PM]
Display posts:    
Reply to topic

Current time is: 23-Oct 08:02

All times are UTC + 3



You cannot post new topics in this forum
You cannot reply to topics in this forum
You cannot edit your posts in this forum
You cannot delete your posts in this forum
You cannot vote in polls in this forum
You cannot attach files in this forum
You cannot download files in this forum