Discovery. Клинический случай / Last Chance Hospital [1-3 серии из 3] (2017) HDTVRip от GeneralFilm

Reply to topic
 
Author Message

Starik60 ®

Gender: Male

Longevity: 11 months 10 days

Posts: 171

Location: Москва, Россия

Post 13-Dec-2018 12:42

[Quote]

Клинический случай / Last Chance Hospital Год выпуска: 2017
Жанр: Документальный, медицина, исследование, наука
Выпущено: США, Discovery Channel
О фильме: Недалеко от Вашингтона на территории Научно-исследовательского центра департамента здравоохранения США находится так называемый «Корпус №10» − крупнейшая в мире больница, специализирующаяся на клинических испытаниях. Именно там лучшие американские ученые-медики проводят рискованные, но критически важные исследования и впервые испытывают новейшие методы лечения на людях, чтобы в будущем революционные открытия стали достоянием всех практикующих врачей. В новой программе вы познакомитесь с работой исследователей и докторов этой необыкновенной больницы и, конечно, с её пациентами, которые также способствуют прогрессу в медицине.
Качество: HDTVRip
Видео: XviD, ~ 1540 Кбит/с, 720x400
Аудио: AC3, 2 ch, 192 Кбит/c
Продолжительность: 3 x ~ 01:24:00
Перевод: Профессиональный (двухголосый, закадровый)

Скриншоты



MediaInfo

General
Complete name : H:\Раздачи 3\Клинический случай GeneralFilm\01 Клинический случай.avi
Format : AVI
Format/Info : Audio Video Interleave
File size : 1.03 GiB
Duration : 1 h 24 min
Overall bit rate : 1 744 kb/s
Writing application : VirtualDubMod 1.5.10.3 | www.virtualdub-fr.org || (build 2550/release)
Writing library : VirtualDubMod build 2550/release
Video
ID : 0
Format : MPEG-4 Visual
Format profile : Advanced Simple@L5
Format settings : BVOP1 / Custom Matrix
Format settings, BVOP : 1
Format settings, QPel : No
Format settings, GMC : No warppoints
Format settings, Matrix : Custom
Codec ID : XVID
Codec ID/Hint : XviD
Duration : 1 h 24 min
Bit rate : 1 542 kb/s
Width : 720 pixels
Height : 400 pixels
Display aspect ratio : 16:9
Frame rate : 25.000 FPS
Color space : YUV
Chroma subsampling : 4:2:0
Bit depth : 8 bits
Scan type : Progressive
Compression mode : Lossy
Bits/(Pixel*Frame) : 0.214
Stream size : 929 MiB (88%)
Writing library : XviD 73
Audio
ID : 1
Format : AC-3
Format/Info : Audio Coding 3
Commercial name : Dolby Digital
Codec ID : 2000
Duration : 1 h 24 min
Bit rate mode : Constant
Bit rate : 192 kb/s
Channel(s) : 2 channels
Channel layout : L R
Sampling rate : 48.0 kHz
Frame rate : 31.250 FPS (1536 SPF)
Bit depth : 16 bits
Compression mode : Lossy
Stream size : 116 MiB (11%)
Alignment : Split accross interleaves
Interleave, duration : 40 ms (1.00 video frame)
Interleave, preload duratio : 500 ms
Service kind : Complete Main
Благодарю за отличный постер ValkiriaGF
Релиз от:
[Profile] [PM]
Display posts:    
Reply to topic

Current time is: 23-Oct 08:05

All times are UTC + 3



You cannot post new topics in this forum
You cannot reply to topics in this forum
You cannot edit your posts in this forum
You cannot delete your posts in this forum
You cannot vote in polls in this forum
You cannot attach files in this forum
You cannot download files in this forum