Discovery. Махинаторы / Wheeler Dealers [16 сезон: 1-9 серии из 9] (2018) HDTVRip 720p от GeneralFilm

Reply to topic
 
Author Message

Starik60 ®

Gender: Male

Longevity: 11 months 10 days

Posts: 171

Location: Москва, Россия

Post 18-Dec-2018 00:40

[Quote]

Махинаторы / Wheeler Dealers
Год выпуска: 2018
Жанр: Документальный, история, автомобилестроение
Выпущено: Великобритания, Attaboy TV LTD for Discovery Channel
Режиссер: Ричард Хили, Уоррен Грин, Дэниэл Аллум, Майкл Вуд, Эд Чайна
В ролях: Майк Брюэр, Энт Энстед
О фильме: Опытный автодилер Майк Брюер и талантливый автомеханик Энт Энстед покупают и реставрируют классические автомобили, чтобы выгодно их перепродать. В каждом выпуске шоу «Махинаторы» они сталкиваются с самыми разными вызовами ‒ от ограниченного бюджета до нехватки редких деталей, ‒ но почти всегда им удается найти удачный компромисс. В этом сезоне Майк будет охотиться за одним из первых внедорожников International Harvester Scout 800A 1970 года, супермашиной 90-х BMW 840, редкой гоночной Lancia Fulvia 1972-го, уникальным двухдверным DATSUN 510. Эти и многие другие раритетные находки Майка доставят немало проблем и головной боли Энту, которому придется приложить все свое мастерство и талант, чтобы вдохнуть новую жизнь в убитый автохлам.

Качество: HDTVRip 720p
Видео: MPEG-4 AVC, ~ 4000 Кбит/с, 1280x720
Аудио: MP2, 2 ch, 384 Кбит/с
Продолжительность: 9 x ~ 00:44:00
Перевод: Дублированный

Скриншоты



MediaInfo

General
Unique ID : 128788854755886865845914919341862667431 (0x60E3D4C8B8C168C08E928B24EF8FC4A7)
Complete name : G:\Раздачи 2\Махинаторы S16 720p GeneralFilm\01 Махинаторы GeneralFilm.mkv
Format : Matroska
Format version : Version 2
File size : 1.35 GiB
Duration : 43 min 54 s
Overall bit rate mode : Constant
Overall bit rate : 4 390 kb/s
Writing application : Lavf54.63.104
Writing library : Lavf54.63.104
Video
ID : 1
Format : AVC
Format/Info : Advanced Video Codec
Format profile : High@L4.1
Format settings : CABAC / 3 Ref Frames
Format settings, CABAC : Yes
Format settings, ReFrames : 3 frames
Codec ID : V_MPEG4/ISO/AVC
Duration : 43 min 54 s
Bit rate mode : Constant
Bit rate : 4 000 kb/s
Width : 1 280 pixels
Height : 720 pixels
Display aspect ratio : 16:9
Frame rate mode : Constant
Frame rate : 50.000 FPS
Standard : PAL
Color space : YUV
Chroma subsampling : 4:2:0
Bit depth : 8 bits
Scan type : Progressive
Bits/(Pixel*Frame) : 0.087
Stream size : 1.20 GiB (89%)
Default : No
Forced : No
Color range : Limited
Color primaries : BT.709
Transfer characteristics : BT.709
Matrix coefficients : BT.709
Audio
ID : 2
Format : MPEG Audio
Format version : Version 1
Format profile : Layer 2
Codec ID : A_MPEG/L2
Codec ID/Hint : MP2
Duration : 43 min 54 s
Bit rate mode : Constant
Bit rate : 384 kb/s
Channel(s) : 2 channels
Sampling rate : 48.0 kHz
Compression mode : Lossy
Delay relative to video : 16 ms
Stream size : 121 MiB (9%)
Language : English
Default : Yes
Forced : No

Название серий

01. Mercury Capri MK2 1976 года.
02. Toyota MR2 Turbo 1991 года.
03. Volvo 850 T-5R Wagon 1995 года.
04. Alfa Romeo 164L 1991 года.
05. Lotus Elan M100 1991 года.
06. Корветт C5 Z06 2002 года.
07. Фольксваген Rabbit GTI.
08. Додж Рам SRT-10 2004 года.
09. Лучшие моменты.

Внимание! Раздача ведётся путём добавления новых серий!

Внимание! Раздача ведётся путём добавления новых серий; при каждом добавлении создfётся новый торрент. Чтобы начать докачку новой серии, пользователям необходимо сделать следующее: (1) остановить скачивание, (2) удалить старый торрент у себя из клиента (старые серии удалять не надо), (3) скачать новый торрент и запустить его у себя в клиенте вместо старого, при этом указать клиенту путь в старую папку куда и должно происходить скачивание новых серий.
Ваш клиент при этом должен произвести хеширование (проверку) старой папки (если не производит сам - помогите ему сделать это), и будет докачивать только те серии которых у вас ещё нет. Старые серии при этом не удаляются, а продолжают раздаваться!
Eсли вы уже удалили старые серии, то предотвратить повторную закачку старых серий можно, отжав галочку в соответсвующих местах при запуске нового торрента.
Благодарю за отличный постер ValkiriaGF
Релиз от:
[Profile] [PM]
Display posts:    
Reply to topic

Current time is: 23-Oct 09:14

All times are UTC + 3



You cannot post new topics in this forum
You cannot reply to topics in this forum
You cannot edit your posts in this forum
You cannot delete your posts in this forum
You cannot vote in polls in this forum
You cannot attach files in this forum
You cannot download files in this forum