Discovery. Сокровище Купера / Cooper's Treasure [2 сезон: 1-8 серии из 8] (2018) HDTVRip 720p от GeneralFilm

Reply to topic
 
Author Message

Starik60 ®

Gender: Male

Longevity: 11 months 10 days

Posts: 171

Location: Москва, Россия

Post 24-Dec-2018 12:42

[Quote]

Сокровище Купера / Cooper's Treasure Год выпуска: 2018
Жанр: Документальный, приключения, история, поиски
Выпущено: США, Discovery Communications, LLC.
О фильме: Даррелл Миклош продолжает охоту за сокровищами на Discovery Channel! После неудачи на островах Тёркс и Кайкос искатель приключений взял себя в руки, собрал достаточно денег и отправился в новый поход. Вооружившись картой астронавта Гордона Купера, тысячами его фотографий, сделанных во время космической миссии «Джемини-V», и загадочным списком одиннадцати местоположений затонувших кораблей, Даррелл направляется к месту кораблекрушений колониальной эпохи – на Багамы. У Миклоша мало денег и ещё меньше времени – всего восемь недель, чтобы найти клад. Но тем интереснее приключение!

Качество: HDTVRip 720p
Видео: MPEG-4 AVC, ~ 4000 Кбит/с, 1280x720
Аудио: MP2, 2 ch, 384 Кбит/с
Продолжительность: 8 x ~ 00:44:00
Перевод: Профессиональный (двухголосый,закадровый)
Cубтитры: нет

Скриншоты



MediaInfo

General
Unique ID : 230968141107045270943689096941173272843 (0xADC2D88DEF47D6BA11FE3FEA458CF10B)
Complete name : H:\Раздачи 4\Сокровище Купера s02.720p.GeneralFilm\01 Сокровище Купера s02.720p.GeneralFilm.mkv
Format : Matroska
Format version : Version 2
File size : 1.34 GiB
Duration : 43 min 46 s
Overall bit rate mode : Constant
Overall bit rate : 4 390 kb/s
Writing application : Lavf54.63.104
Writing library : Lavf54.63.104
Video
ID : 1
Format : AVC
Format/Info : Advanced Video Codec
Format profile : High@L4.1
Format settings : CABAC / 3 Ref Frames
Format settings, CABAC : Yes
Format settings, ReFrames : 3 frames
Codec ID : V_MPEG4/ISO/AVC
Duration : 43 min 46 s
Bit rate mode : Constant
Bit rate : 4 000 kb/s
Width : 1 280 pixels
Height : 720 pixels
Display aspect ratio : 16:9
Frame rate mode : Constant
Frame rate : 50.000 FPS
Standard : PAL
Color space : YUV
Chroma subsampling : 4:2:0
Bit depth : 8 bits
Scan type : Progressive
Bits/(Pixel*Frame) : 0.087
Stream size : 1.20 GiB (89%)
Default : No
Forced : No
Color range : Limited
Color primaries : BT.709
Transfer characteristics : BT.709
Matrix coefficients : BT.709
Audio
ID : 2
Format : MPEG Audio
Format version : Version 1
Format profile : Layer 2
Codec ID : A_MPEG/L2
Codec ID/Hint : MP2
Duration : 43 min 46 s
Bit rate mode : Constant
Bit rate : 384 kb/s
Channel(s) : 2 channels
Sampling rate : 48.0 kHz
Compression mode : Lossy
Delay relative to video : 24 ms
Stream size : 120 MiB (9%)
Language : English
Default : Yes
Forced : No
Благодарю за отличный постер ValkiriaGF
Релиз от:
[Profile] [PM]
Display posts:    
Reply to topic

Current time is: 23-Oct 09:16

All times are UTC + 3



You cannot post new topics in this forum
You cannot reply to topics in this forum
You cannot edit your posts in this forum
You cannot delete your posts in this forum
You cannot vote in polls in this forum
You cannot attach files in this forum
You cannot download files in this forum