Через червоточину с Морганом Фрименом / Through The Wormhole with Morgan Freeman [7-8 сезоны: 1-8 серия из 8] (2017) HDTVRip (720p) от GeneralFilm

Reply to topic
 
Author Message

Abakan2000 ®

Gender: Male

Longevity: 11 months 9 days

Posts: 10

Post 10-Jan-2019 22:19

[Quote]

Через червоточину с Морганом Фрименом / Through The Wormhole with Morgan Freeman
Год выпуска: 2017
Жанр: Документальный, научно-познавательный, исследования, гипотезы
Выпущено: США, The Incubator, Revelations Entertainment, Discovery Communications, Science Channel
Режиссер: Курт Сайенга
В ролях: Морган Фримен
О фильме: Испокон веков человечество ищет ответ на вопрос, какое место мы занимаем во Вселенной. Тысячелетиями люди мечтали раскрыть самые глубинные тайны мироздания. В последнем сезоне программы «Сквозь кротовую нору» Морган Фримен продолжит изучать самые волнующие темы на стыке философии и физики. Мы попытаемся дать ответы на некоторые из самых актуальных вопросов нашего времени: «Из чего рождается террорист?», «Возможно ли, что биологических полов больше двух?» и «Можем ли мы все быть гениями?». Вы готовы отправиться на поиски истины? Смотрите 7 и заключительный 8 сезоны программы «Через червоточину с Морганом Фрименом»

Качество: HDTVRip 720p
Видео: MPEG-4 AVC, ~ 4000 Кбит/с, 1280x720, 50 кадр/с
Аудио: MP2, 2 ch, 192 Кбит/с
Продолжительность: 8 х ~ 00:43:00
Перевод: Профессиональный (двухголосый закадровый)
Субтитры: нет

Скриншоты


MediaInfo

General
Unique ID : 13464853508639499847288152774750886657 (0xA213C88709D34950E72BFFC48CDDB01)
Complete name : E:\ВИДЕО\Документальные\Через червоточину с Морганом Фрименом S07-08.720p GeneralFilm\01 Через червоточину с Морганом Фрименом GeneralFilm.mkv
Format : Matroska
Format version : Version 2
File size : 1.29 GiB
Duration : 43 min 50 s
Overall bit rate mode : Constant
Overall bit rate : 4 198 kb/s
Writing application : Lavf54.63.104
Writing library : Lavf54.63.104
Video
ID : 1
Format : AVC
Format/Info : Advanced Video Codec
Format profile : High@L4.1
Format settings : CABAC / 3 Ref Frames
Format settings, CABAC : Yes
Format settings, ReFrames : 3 frames
Codec ID : V_MPEG4/ISO/AVC
Duration : 43 min 50 s
Bit rate mode : Constant
Bit rate : 4 000 kb/s
Width : 1 280 pixels
Height : 720 pixels
Display aspect ratio : 16:9
Frame rate mode : Constant
Frame rate : 50.000 FPS
Standard : PAL
Color space : YUV
Chroma subsampling : 4:2:0
Bit depth : 8 bits
Scan type : Progressive
Bits/(Pixel*Frame) : 0.087
Stream size : 1.20 GiB (93%)
Default : No
Forced : No
Color range : Limited
Color primaries : BT.709
Transfer characteristics : BT.709
Matrix coefficients : BT.709
Audio
ID : 2
Format : MPEG Audio
Format version : Version 1
Format profile : Layer 2
Codec ID : A_MPEG/L2
Codec ID/Hint : MP2
Duration : 43 min 50 s
Bit rate mode : Constant
Bit rate : 192 kb/s
Channel(s) : 2 channels
Sampling rate : 48.0 kHz
Compression mode : Lossy
Delay relative to video : 4 ms
Stream size : 60.2 MiB (5%)
Language : English
Default : Yes
Forced : No

Содержание

01. Существует ли частная жизнь?
02. Может ли время идти вспять?
03. Может ли быть больше двух полов?
04.Вооруженные преступления - вирус или нет?
05. Гений в каждом из нас?
06. Пребудет ли с нами Сила?
07. В чем суть террориста?
08. Можно ли взломать планету?
Релиз от:
[Profile] [PM]
Display posts:    
Reply to topic

Current time is: 23-Oct 09:28

All times are UTC + 3



You cannot post new topics in this forum
You cannot reply to topics in this forum
You cannot edit your posts in this forum
You cannot delete your posts in this forum
You cannot vote in polls in this forum
You cannot attach files in this forum
You cannot download files in this forum