Загадочные исчезновения / Mysteries of the Missing [1-5 серии из 8] (2017) HDTV (1080i) от Generalfilm

Reply to topic
 
Author Message

Abakan2000 ®

Gender: Male

Longevity: 11 months 9 days

Posts: 10

Post 05-Feb-2019 20:57

[Quote]

Загадочные исчезновения / Mysteries of the Missing
Год выпуска: 2017
Жанр: Документальный, история, археология, путешествия, исследования
Выпущено: США, Wall to Wall
Режиссер: Эбигэйл Уильямс
В ролях: Терри О`Куинн
О фильме: Трудно поверить, но в дни, когда местоположение почти чего угодно можно отследить с точностью буквально до нескольких десятков метров, люди, суда и самолеты продолжают пропадать без следа. Несмотря на революционные достижения науки и передовые технологии, исследователи до сих пор не могут объяснить самые известные случаи таинственных исчезновений. Пропажа самолёта рейса 370 Малазийских авиалиний, бригантины «Мария Селеста» и колонии Роанок − загадки этих пугающих и шокирующих происшествий так и остаются нераскрытыми. В поисках наиболее правдоподобных версий мы сопоставим все имеющиеся факты, рассмотрим конкурирующие теории и изучим данные официальных расследований.

Качество: HDTV (1080i)
Видео: MPEG-4 AVC, ~ 7000 Кбит/с, 1920x1080
Аудио: Русский (AC3, 2 ch, 384 Кбит/с), английский (MP2, 2 ch, 192 Кбит/с)
Продолжительность: 5 x ~ 00:44:00
Перевод: Студийный (одноголосый закадровый)

Скриншоты


MediaInfo

General
ID : 1 (0x1)
Complete name : E:\ВИДЕО\Документальные\Загадочные исчезновения 1080i GeneralFilm\01 Загадочные исчезновения от GeneralFilm .ts
Format : MPEG-TS
File size : 2.42 GiB
Duration : 43 min 56 s
Overall bit rate mode : Variable
Overall bit rate : 7 884 kb/s
Video
ID : 513 (0x201)
Menu ID : 1 (0x1)
Format : AVC
Format/Info : Advanced Video Codec
Format profile : High@L4.1
Format settings : CABAC / 3 Ref Frames
Format settings, CABAC : Yes
Format settings, ReFrames : 3 frames
Codec ID : 27
Duration : 43 min 56 s
Bit rate mode : Constant
Bit rate : 7 000 kb/s
Width : 1 920 pixels
Height : 1 080 pixels
Display aspect ratio : 16:9
Frame rate : 25.000 FPS
Standard : PAL
Color space : YUV
Chroma subsampling : 4:2:0
Bit depth : 8 bits
Scan type : Interlaced
Scan type, store method : Separated fields
Scan order : Top Field First
Bits/(Pixel*Frame) : 0.135
Stream size : 2.12 GiB (88%)
Color range : Limited
Color primaries : BT.709
Transfer characteristics : BT.709
Matrix coefficients : BT.709
Audio #1
ID : 514 (0x202)
Menu ID : 1 (0x1)
Format : AC-3
Format/Info : Audio Coding 3
Commercial name : Dolby Digital
Codec ID : 129
Duration : 43 min 56 s
Bit rate mode : Constant
Bit rate : 384 kb/s
Channel(s) : 6 channels
Channel layout : L R C LFE Ls Rs
Sampling rate : 48.0 kHz
Frame rate : 31.250 FPS (1536 SPF)
Bit depth : 16 bits
Compression mode : Lossy
Stream size : 121 MiB (5%)
Language : Russian
Service kind : Complete Main
Audio #2
ID : 515 (0x203)
Menu ID : 1 (0x1)
Format : MPEG Audio
Format version : Version 1
Format profile : Layer 2
Codec ID : 3
Duration : 43 min 56 s
Bit rate mode : Constant
Bit rate : 192 kb/s
Channel(s) : 2 channels
Sampling rate : 48.0 kHz
Frame rate : 41.667 FPS (1152 SPF)
Compression mode : Lossy
Stream size : 60.3 MiB (2%)
Language : English

Содержание

01. Охота за рейсом MH370 / Hunt for Flight MH370
В 2014 году с экранов радаров пропал Малазийский Боинг, летевший из Куала-Лумпура в Пекин. Разбился ли он и если да, то почему не нашли обломки?
02. Запретный Золотой город / Forbidden City of Gold
Легенды гласят, что затерянный город Эльдорадо является самым большим в мире из еще не найденных сокровищ золота. Искать его отправлялись сотни людей но никто не вернулся. Смогут ли новейшие технологии помочь в поисках потерянного города в неприветливых джунглях.
После того, как кристалл обнаружен на обломках кораблекрушения, эксперты считают, что он может доказать, как викинги открыли Америку.
03. Призрачный корабль пустыни / Ghost Ship of the Desert
Грузовой корабль и двадцать семь членов экипажа пропали без вести. Новые данные свидетельствуют о том, что за этим исчезновением может стоять мифическая блуждающая волна.
04. Люди, которые победили Алькатрас / The Men Who Beat Alcatraz
В 1962 году трое осужденных пытаются совершить невозможное и убежать из тюрьмы Алькатраса. Чиновники считают, что люди утонули, но новый научный эксперимент предполагает, что они добрались до берега.
05. Террор в воздухе / Flight of Terror
В 2009 году пропал без вести рейс Air France и исследователи обнаружили, что эта трагедия может повториться.
После того, как огромная территория сибирского леса разрушена, исследователи пытаются найти виновника катастрофы. Новые доказательства могут окончательно решить эту вековую тайну.
Релиз от:
[Profile] [PM]
Display posts:    
Reply to topic

Current time is: 23-Oct 08:05

All times are UTC + 3



You cannot post new topics in this forum
You cannot reply to topics in this forum
You cannot edit your posts in this forum
You cannot delete your posts in this forum
You cannot vote in polls in this forum
You cannot attach files in this forum
You cannot download files in this forum