Discovery. Разрушители легенд. Дети / Mythbusters Jr. [1-10 серии из 10] (2019) HDTVRip 720p от GeneralFilm

Reply to topic
 
Author Message

Starik60 ®

Gender: Male

Longevity: 11 months 10 days

Posts: 171

Location: Москва, Россия

Post 17-Feb-2019 15:00

[Quote]

Разрушители легенд. Дети / Mythbusters Jr.
Год выпуска: 2019
Жанр: Документальный, научно-познавательный, шоу
Выпущено: США, Австралия, Discovery Communications, Beyond Distribution
Режиссер: Жаклин Маркер, Ивет Солис
В ролях: Адам Сэвэдж, Элли Вебер, Каннан Хьюи-Ты, Элайджа Хорланд, Джесси Лоулесс, Рэйчел Пиццолато, Валери Кастильо, Роберт Ли, Джон Марку, Тамара Робертсон
О фильме: Адам Сэвидж возвращается, чтобы дать шанс молодому поколению исследователей продемонстрировать их удивительные таланты! Шесть юных разрушителей мифов и городских легенд, взяв на вооружение достижения современной науки, готовы экспериментировать в попытке отделить правду от вымысла. Пусть они еще совсем «зеленые», но ребята со рвением взрослых устраивают взрывы, химичат в лаборатории, испытывают законы физики и погружаются в исследование поп-культуры. Можно ли сделать парашют из клейкой ленты? Получится ли собрать ракетный ранец из огнетушителей? Эти талантливые подростки обязательно найдут ответы на самые каверзные вопросы!

Качество: HDTVRip 720p
Видео: MPEG-4 AVC, ~ 4000 Кбит/с, 1280x720, 50 кадр/с
Аудио: MP2, 2 ch, 384 Кбит/с
Продолжительность: 10 x ~ 00:44:00
Перевод: Профессиональный (многоголосый, закадровый)
Субтитров: нет

Скриншоты



MediaInfo

Format : Matroska
Format version : Version 2
File size : 1.34 GiB
Duration : 43 min 32 s
Overall bit rate mode : Constant
Overall bit rate : 4 390 kb/s
Writing application : Lavf54.63.104
Writing library : Lavf54.63.104
Video
ID : 1
Format : AVC
Format/Info : Advanced Video Codec
Format profile : High@L4.1
Format settings : CABAC / 3 Ref Frames
Format settings, CABAC : Yes
Format settings, ReFrames : 3 frames
Codec ID : V_MPEG4/ISO/AVC
Duration : 43 min 32 s
Bit rate mode : Constant
Bit rate : 4 000 kb/s
Width : 1 280 pixels
Height : 720 pixels
Display aspect ratio : 16:9
Frame rate mode : Constant
Frame rate : 50.000 FPS
Standard : PAL
Color space : YUV
Chroma subsampling : 4:2:0
Bit depth : 8 bits
Scan type : Progressive
Bits/(Pixel*Frame) : 0.087
Stream size : 1.19 GiB (89%)
Default : No
Forced : No
Color range : Limited
Color primaries : BT.709
Transfer characteristics : BT.709
Matrix coefficients : BT.709
Audio
ID : 2
Format : MPEG Audio
Format version : Version 1
Format profile : Layer 2
Codec ID : A_MPEG/L2
Codec ID/Hint : MP2
Duration : 43 min 32 s
Bit rate mode : Constant
Bit rate : 384 kb/s
Channel(s) : 2 channels
Sampling rate : 48.0 kHz
Compression mode : Lossy
Delay relative to video : 12 ms
Stream size : 120 MiB (9%)
Language : English
Default : Yes
Forced : No

Внимание! Раздача ведётся путём добавления новых серий!

Внимание! Раздача ведётся путём добавления новых серий; при каждом добавлении создfётся новый торрент. Чтобы начать докачку новой серии, пользователям необходимо сделать следующее: (1) остановить скачивание, (2) удалить старый торрент у себя из клиента (старые серии удалять не надо), (3) скачать новый торрент и запустить его у себя в клиенте вместо старого, при этом указать клиенту путь в старую папку куда и должно происходить скачивание новых серий.
Ваш клиент при этом должен произвести хеширование (проверку) старой папки (если не производит сам - помогите ему сделать это), и будет докачивать только те серии которых у вас ещё нет. Старые серии при этом не удаляются, а продолжают раздаваться!
Eсли вы уже удалили старые серии, то предотвратить повторную закачку старых серий можно, отжав галочку в соответсвующих местах при запуске нового торрента.
Благодарю за отличный постер ValkiriaGF
Релиз от:
[Profile] [PM]
Display posts:    
Reply to topic

Current time is: 23-Oct 08:39

All times are UTC + 3



You cannot post new topics in this forum
You cannot reply to topics in this forum
You cannot edit your posts in this forum
You cannot delete your posts in this forum
You cannot vote in polls in this forum
You cannot attach files in this forum
You cannot download files in this forum