Счастливый Лазарь / Lazzaro felice (2018) BDRip 1080p | iTunes

Reply to topic
 
Author Message

Monk ®

Gender: Male

Longevity: 10 months 6 days

Posts: 8734

Location: Казань

Post 19-Feb-2019 08:37

[Quote]

Счастливый Лазарь / Lazzaro felice Год выпуска: 2018
Жанр: Драма
Выпущено: Италия, Швейцария, Франция, Германия, Ad Vitam Production, Medienboard Berlin-Brandenburg, RSI-Radiotelevisione Svizzera
Режиссер: Аличе Рорвахер
В ролях: Адриано Тардиоло, Агнесса Грациани, Лука Чиковани, Альба Рорвахер, Серхи Лопес, Наталино Балассо, Томмазо Раньо, Николетта Браски, Маддалена Байокко
О фильме: Лазарь настолько чистосердечный юноша, что некоторые считают его дурачком. Может быть он и простак, но так не считает избалованный выходец из аристократичной семьи Танкреди, который заводит дружбу с Лазарем. Вскоре судьба проверит их дружбу на прочность.
Качество: BDRip 1080p
Видео: MPEG-4 AVC, 9522 Кбит/с, 1760x1080, 23.976 кадр/с
Аудио: Русский (AC3, 2 ch, 192 Кбит/с), итальянский (DTS, 6 ch, 1509 Кбит/с)
Продолжительность: 02:07:39
Перевод: Профессиональный многоголосый [iTunes]
Субтитры: Русские, английские

Скриншоты


MediaInfo

General
Unique ID : 245229402905684558593767767453315201031 (0xB87D770C353160C1B25BCA3528597807)
Complete name : I:\Happy.as.Lazzaro.2018.P.BDRip.1080p.x264.Rus.Ita.mkv
Format : Matroska
Format version : Version 4 / Version 2
File size : 10.0 GiB
Duration : 2 h 7 min
Overall bit rate : 11.2 Mb/s
Encoded date : UTC 2019-08-10 12:50:18
Writing application : mkvmerge v8.3.0 ('Over the Horizon') 32bit
Writing library : libebml v1.3.1 + libmatroska v1.4.2
Attachments : poster.jpg
Video
ID : 1
Format : AVC
Format/Info : Advanced Video Codec
Format profile : High@L4.1
Format settings, CABAC : Yes
Format settings, ReFrames : 4 frames
Codec ID : V_MPEG4/ISO/AVC
Duration : 2 h 7 min
Bit rate : 9 522 kb/s
Width : 1 760 pixels
Height : 1 080 pixels
Display aspect ratio : 16:10
Frame rate mode : Constant
Frame rate : 23.976 (24000/1001) FPS
Color space : YUV
Chroma subsampling : 4:2:0
Bit depth : 8 bits
Scan type : Progressive
Bits/(Pixel*Frame) : 0.209
Stream size : 8.49 GiB (85%)
Writing library : x264 core 157 r2969 d4099dd
Encoding settings : cabac=1 / ref=4 / deblock=1:-3:-3 / analyse=0x3:0x133 / me=umh / subme=9 / psy=1 / psy_rd=1.00:0.00 / mixed_ref=1 / me_range=16 / chroma_me=1 / trellis=2 / 8x8dct=1 / cqm=0 / deadzone=21,11 / fast_pskip=0 / chroma_qp_offset=-2 / threads=18 / lookahead_threads=1 / sliced_threads=0 / nr=0 / decimate=1 / interlaced=0 / bluray_compat=0 / constrained_intra=0 / bframes=3 / b_pyramid=2 / b_adapt=1 / b_bias=0 / direct=3 / weightb=1 / open_gop=0 / weightp=2 / keyint=240 / keyint_min=24 / scenecut=40 / intra_refresh=0 / rc_lookahead=50 / rc=2pass / mbtree=1 / bitrate=9522 / ratetol=1.0 / qcomp=0.60 / qpmin=0 / qpmax=69 / qpstep=4 / cplxblur=20.0 / qblur=0.5 / ip_ratio=1.40 / aq=1:1.00
Language : Italian
Default : Yes
Forced : No
Audio #1
ID : 2
Format : AC-3
Format/Info : Audio Coding 3
Format settings, Endianness : Big
Codec ID : A_AC3
Duration : 2 h 7 min
Bit rate mode : Constant
Bit rate : 192 kb/s
Channel(s) : 2 channels
Channel positions : Front: L R
Sampling rate : 48.0 kHz
Frame rate : 31.250 FPS (1536 spf)
Bit depth : 16 bits
Compression mode : Lossy
Stream size : 175 MiB (2%)
Title : Профессиональный (многоголосый закадровый) - "Видеопродакшн" (iTunes)
Language : Russian
Service kind : Complete Main
Default : Yes
Forced : No
Audio #2
ID : 3
Format : DTS
Format/Info : Digital Theater Systems
Mode : 16
Format settings, Endianness : Big
Codec ID : A_DTS
Duration : 2 h 7 min
Bit rate mode : Constant
Bit rate : 1 509 kb/s
Channel(s) : 6 channels
Channel positions : Front: L C R, Side: L R, LFE
Sampling rate : 48.0 kHz
Frame rate : 93.750 FPS (512 spf)
Bit depth : 24 bits
Compression mode : Lossy
Stream size : 1.35 GiB (13%)
Language : Italian
Default : No
Forced : No
Text #1
ID : 4
Format : UTF-8
Codec ID : S_TEXT/UTF8
Codec ID/Info : UTF-8 Plain Text
Duration : 2 h 0 min
Bit rate : 62 b/s
Count of elements : 1426
Stream size : 55.3 KiB (0%)
Language : Russian
Default : No
Forced : No
Text #2
ID : 5
Format : UTF-8
Codec ID : S_TEXT/UTF8
Codec ID/Info : UTF-8 Plain Text
Duration : 2 h 0 min
Bit rate : 39 b/s
Count of elements : 1426
Stream size : 35.2 KiB (0%)
Language : English
Default : No
Forced : No
Menu
00:00:00.000 : en:00:00:00.000
00:09:30.153 : en:00:09:30.153
00:21:16.150 : en:00:21:16.150
00:28:04.558 : en:00:28:04.558
00:49:21.959 : en:00:49:21.959
00:57:57.057 : en:00:57:57.057
01:05:42.147 : en:01:05:42.147
01:16:18.115 : en:01:16:18.115
01:23:31.131 : en:01:23:31.131
01:34:02.971 : en:01:34:02.971
01:44:18.961 : en:01:44:18.961
01:51:46.617 : en:01:51:46.617
[Profile] [PM]
Display posts:    
Reply to topic

Current time is: 21-Sep 02:26

All times are UTC + 3



You cannot post new topics in this forum
You cannot reply to topics in this forum
You cannot edit your posts in this forum
You cannot delete your posts in this forum
You cannot vote in polls in this forum
You cannot attach files in this forum
You cannot download files in this forum