Зелёная книга / Green Book (2018) BDRip | Лицензия

Reply to topic
 
Author Message

Monk ®

Gender: Male

Longevity: 10 months 6 days

Posts: 8734

Location: Казань

Post 20-Feb-2019 11:48

[Quote]

Зелёная книга / Green Book Год выпуска: 2018
Жанр: Драма, комедия, биография
Выпущено: США, Participant Media, DreamWorks, Amblin Partners
Режиссер: Питер Фаррелли
В ролях: Вигго Мортенсен, Махершала Али, Линда Карделлини, Себастьян Манискалко, Димитар Маринов, Майк Хаттон, П.Дж. Бирн, Джозеф Кортезе, Мэгги Никсон, Фон Льюис
О фильме: Утонченный светский лев, богатый и талантливый музыкант нанимает в качестве водителя и телохранителя человека, который менее всего подходит для этой работы. Тони «Болтун» - вышибала, не умеющий держать рот на замке и пользоваться столовыми приборами, зато он хорошо работает кулаками. Это турне навсегда изменит жизнь обоих.
Качество: BDRip
Видео: XviD, 2364 Кбит/с, 704x352
Аудио: Русский, английский (AC3, 6 ch, 448 Кбит/с)
Продолжительность: 02:10:04
Перевод: Дублированный [Лицензия]
Субтитры: Русские, английские

Скриншоты

MediaInfo

Общее
Полное имя : F:\Кинозал.ТВ 2018\Зелёная книга_2018_BDRip\Зелёная книга_2018_BDRip.avi
Формат : AVI
Формат/Информация : Audio Video Interleave
Профиль формата : OpenDML
Размер файла : 2,97 Гбайт
Продолжительность : 2 ч. 10 м.
Общий поток : 3266 Кбит/сек
Программа кодирования : VirtualDubMod 1.5.10.2 (build 2542/release)
Библиотека кодирования : VirtualDubMod build 2542/release
Видео
Идентификатор : 0
Формат : MPEG-4 Visual
Профиль формата : Advanced Simple@L5
Параметр BVOP формата : 1
Параметр QPel формата : Нет
Параметр GMC формата : Без точки перехода
Параметр матрицы формата : Выборочная
Идентификатор кодека : XVID
Идентификатор кодека/Подсказка : XviD
Продолжительность : 2 ч. 10 м.
Битрейт : 2356 Кбит/сек
Ширина : 704 пикселя
Высота : 352 пикселя
Соотношение сторон : 2,000
Частота кадров : 23,976 кадра/сек
Цветовое пространство : YUV
Субдискретизация насыщенности : 4:2:0
Битовая глубина : 8 бит
Тип развёртки : Прогрессивная
Метод сжатия : С потерями
Бит/(Пиксели*Кадры) : 0.397
Размер потока : 2,14 Гбайт (72%)
Библиотека кодирования : XviD 1.2.1 (UTC 2008-12-04)
Аудио #1
Идентификатор : 1
Формат : AC-3
Формат/Информация : Audio Coding 3
Расширение режима : CM (complete main)
Параметр Endianness формата : Big
Идентификатор кодека : 2000
Продолжительность : 2 ч. 9 м.
Вид битрейта : Постоянный
Битрейт : 448 Кбит/сек
Каналы : 6 каналов
Расположение каналов : Front: L C R, Side: L R, LFE
Частота : 48,0 КГц
Метод сжатия : С потерями
Размер потока : 416 Мбайт (14%)
Выравнивание : Разделение по промежуткам
Продолжительность промежутка : 42 мс. (1,00 видеокадр)
Время предзагрузки промежутка : 500 мс.
Аудио #2
Идентификатор : 2
Формат : AC-3
Формат/Информация : Audio Coding 3
Расширение режима : CM (complete main)
Параметр Endianness формата : Big
Идентификатор кодека : 2000
Продолжительность : 2 ч. 10 м.
Вид битрейта : Постоянный
Битрейт : 448 Кбит/сек
Каналы : 6 каналов
Расположение каналов : Front: L C R, Side: L R, LFE
Частота : 48,0 КГц
Метод сжатия : С потерями
Размер потока : 417 Мбайт (14%)
Выравнивание : Разделение по промежуткам
Продолжительность промежутка : 42 мс. (1,00 видеокадр)
Время предзагрузки промежутка : 500 мс.
[Profile] [PM]
Display posts:    
Reply to topic

Current time is: 21-Sep 01:47

All times are UTC + 3



You cannot post new topics in this forum
You cannot reply to topics in this forum
You cannot edit your posts in this forum
You cannot delete your posts in this forum
You cannot vote in polls in this forum
You cannot attach files in this forum
You cannot download files in this forum