Discovery. Самогонщики / Moonshiners [8 сезон: 1-19 серии из 19] (2019) HDTVRip от GeneralFilm

Reply to topic
 
Author Message

Starik60 ®

Gender: Male

Longevity: 11 months 10 days

Posts: 171

Location: Москва, Россия

Post 03-Feb-2019 15:31

[Quote]

Самогонщики / Moonshiners
Год выпуска: 2019
Жанр: Документальный, познавательный, криминал, расследование
Выпущено: США, Magilla Entertainment
Режиссер: Ноа Данофф, Брайан Гартон
В ролях: Джереми Шварц, Джош Оуэнс, Марк Роджерс, Тим Смит, Джефф Волдруп, Билл Кэнни, Стив Тикл, Джим Том Хедрик, Ланс Волдруп, Марк Рэмси
О фильме: Думаете, подпольное самогоноварение исчезло с отменой сухого закона? Ничего подобного! В наши дни этот бизнес по-прежнему остается незаконным, но от этого он не перестает быть менее доходным, а значит, притягательным! Производство самогона изначально было особенно распространено именно в Аппалачах. Всё началось еще в конце XVIII века, когда иммигранты из провинции Ольстер на севере Ирландии привезли в Америку свой рецепт uisce beatha (в пер. с гэльского «вода жизни»). Поселенцы делали виски без выдержки, и именно этот способ стал традиционным для Аппалачей. Сегодня рецепт постоянно меняет и совершенствуется для поиска новых вкусов. Как устроен бизнес смельчаков, занимающихся производством алкоголя в подпольных винокурнях, и как они организуют свою тайную деятельность? Какие опасности их поджидают, и как они умудряются справляться с проблемами в таких непростых условиях? Узнайте в новом сезоне шоу «Самогонщики»!

Качество: HDTVRip
Видео: XviD, ~ 1600 Кбит/с, 720x400
Аудио: AC3, 2 ch, 192 Кбит/с
Продолжительность: 19 x ~ 00:44:00
Перевод: Профессиональный (одноголосый, закадровый)

Скриншоты



MediaIfo

Format : AVI
Format/Info : Audio Video Interleave
File size : 567 MiB
Duration : 43 min 58 s
Overall bit rate : 1 802 kb/s
Writing application : VirtualDubMod 1.5.10.3 | www.virtualdub-fr.org || (build 2550/release)
Writing library : VirtualDubMod build 2550/release
Video
ID : 0
Format : MPEG-4 Visual
Format profile : Advanced Simple@L5
Format settings : BVOP1 / Custom Matrix
Format settings, BVOP : 1
Format settings, QPel : No
Format settings, GMC : No warppoints
Format settings, Matrix : Custom
Codec ID : XVID
Codec ID/Hint : XviD
Duration : 43 min 58 s
Bit rate : 1 601 kb/s
Width : 720 pixels
Height : 400 pixels
Display aspect ratio : 16:9
Frame rate : 25.000 FPS
Color space : YUV
Chroma subsampling : 4:2:0
Bit depth : 8 bits
Scan type : Progressive
Compression mode : Lossy
Bits/(Pixel*Frame) : 0.222
Stream size : 503 MiB (89%)
Writing library : XviD 73
Audio
ID : 1
Format : AC-3
Format/Info : Audio Coding 3
Commercial name : Dolby Digital
Codec ID : 2000
Duration : 43 min 58 s
Bit rate mode : Constant
Bit rate : 192 kb/s
Channel(s) : 2 channels
Channel layout : L R
Sampling rate : 48.0 kHz
Frame rate : 31.250 FPS (1536 SPF)
Bit depth : 16 bits
Compression mode : Lossy
Stream size : 60.4 MiB (11%)
Alignment : Split accross interleaves
Interleave, duration : 40 ms (1.00 video frame)
Interleave, preload duratio : 500 ms
Service kind : Complete Main

Внимание! Раздача ведётся путём добавления новых серий!

Внимание! Раздача ведётся путём добавления новых серий; при каждом добавлении создfётся новый торрент. Чтобы начать докачку новой серии, пользователям необходимо сделать следующее: (1) остановить скачивание, (2) удалить старый торрент у себя из клиента (старые серии удалять не надо), (3) скачать новый торрент и запустить его у себя в клиенте вместо старого, при этом указать клиенту путь в старую папку куда и должно происходить скачивание новых серий.
Ваш клиент при этом должен произвести хеширование (проверку) старой папки (если не производит сам - помогите ему сделать это), и будет докачивать только те серии которых у вас ещё нет. Старые серии при этом не удаляются, а продолжают раздаваться!
Eсли вы уже удалили старые серии, то предотвратить повторную закачку старых серий можно, отжав галочку в соответсвующих местах при запуске нового торрента.
Релиз от:


Last edited by Starik60 on 2019-06-03 10:07; edited 10 times in total
[Profile] [PM]

masterplan

Gender: Male

Longevity: 9 months 2 days

Posts: 1

Post 22-Mar-2019 15:01 (after 1 month 18 days)

[Quote]

А данного сезона в качестве 720р нет или есть?
[Profile] [PM]

bob1991130

Gender: Male

Longevity: 7 months 15 days

Posts: 1

Post 31-Mar-2019 00:16 (after 8 days)

[Quote]

Добавьте 9 серию пожалуйста.
[Profile] [PM]
Display posts:    
Reply to topic

Current time is: 23-Oct 08:20

All times are UTC + 3



You cannot post new topics in this forum
You cannot reply to topics in this forum
You cannot edit your posts in this forum
You cannot delete your posts in this forum
You cannot vote in polls in this forum
You cannot attach files in this forum
You cannot download files in this forum