Discovery. Взрывая историю / Blowing up History [1 сезон: 1-6 серии из 6] (2016) HDTVRip 720p от GeneralFilm

Reply to topic
 
Author Message

Monk ®

Gender: Male

Longevity: 11 months 8 days

Posts: 9042

Location: Казань

Post 06-May-2019 12:11

[Quote]

Discovery. Взрывая историю / Blowing up History Год выпуска: 2016
Жанр: Документальный, наука, история, археология
Выпущено: США, Discovery Channel
О фильме: Глядя на дошедшие до нас памятники древних цивилизаций, трудно поверить, что задолго до появления современных технологий и мощной строительной техники удавалось возводить столь величественные сооружения. Программа Discovery Channel «Взрывая историю» ищет ответ на вопрос, как архитекторам и строителям давних эпох удавалось опередить свое время. С помощью компьютерных технологий здания будут разобраны буквально по кирпичикам, чтобы проследить их судьбу, а заодно выяснить, что скрывают каменные стены. В центре внимания – шесть впечатляющих объектов, чья история уходит в далекое прошлое: Афинский Акрополь, Чичен-Ица, Кёльнский собор, Вестминстерский дворец, египетские пирамиды и Великая Китайская стена. Взгляните на них в разрезе!

Качество: HDTVRip 720p
Видео: MPEG-2 AVC, ~ 4000 Кбит/с, 1280x720
Аудио: MP2, 2 ch, 192 Кбит/с
Продолжительность: 6 x ~ 00:44:00
Перевод: Профессиональный одноголосый

Скриншоты



MediaInfo

C:\Users\Evgeny\Downloads\Взрывая историю 720p GeneralFilm\01 Взрывая историю.mkv
General
Unique ID : 130847817130325217388317820533464811754 (0x62705F777B60F60DC9ABE2823DAEC8EA)
Complete name : C:\Users\Evgeny\Downloads\Взрывая историю 720p GeneralFilm\01 Взрывая историю.mkv
Format : Matroska
Format version : Version 2
File size : 1.28 GiB
Duration : 43 min 49 s
Overall bit rate mode : Constant
Overall bit rate : 4 197 kb/s
Writing application : Lavf54.63.104
Writing library : Lavf54.63.104
Video #1
ID : 1
Format : AVC
Format/Info : Advanced Video Codec
Format profile : High@L4.1
Format settings : CABAC / 3 Ref Frames
Format settings, CABAC : Yes
Format settings, ReFrames : 3 frames
Codec ID : V_MPEG4/ISO/AVC
Duration : 43 min 49 s
Bit rate mode : Constant
Bit rate : 4 000 kb/s
Width : 1 280 pixels
Height : 720 pixels
Display aspect ratio : 16:9
Frame rate mode : Constant
Frame rate : 30.000 FPS
Standard : NTSC
Color space : YUV
Chroma subsampling : 4:2:0
Bit depth : 8 bits
Scan type : Progressive
Bits/(Pixel*Frame) : 0.145
Stream size : 1.20 GiB (93%)
Default : No
Forced : No
Color range : Limited
Color primaries : BT.709
Transfer characteristics : BT.709
Matrix coefficients : BT.709
Audio #2
ID : 2
Format : MPEG Audio
Format version : Version 1
Format profile : Layer 2
Codec ID : A_MPEG/L2
Codec ID/Hint : MP2
Duration : 43 min 49 s
Bit rate mode : Constant
Bit rate : 192 kb/s
Channel(s) : 2 channels
Sampling rate : 48.0 kHz
Compression mode : Lossy
Delay relative to video : 6 ms
Stream size : 60.2 MiB (5%)
Language : English
Default : Yes
Forced : No

Содержание

01. Тайны Афинского Акрополя.
02. Тайна пирамиды Майя.
03. Тайны средневековых соборов.
04. Загадки Вестминстерского дворца.
05. Тайна великой пирамиды.
06. Великая Китайская стена.
Благодарю за отличный постер ValkiriaGF
Релиз от:
[Profile] [PM]
Display posts:    
Reply to topic

Current time is: 23-Oct 08:28

All times are UTC + 3



You cannot post new topics in this forum
You cannot reply to topics in this forum
You cannot edit your posts in this forum
You cannot delete your posts in this forum
You cannot vote in polls in this forum
You cannot attach files in this forum
You cannot download files in this forum