Discovery: Золотая лихорадка / Gold Rush [9 сезон: 1-12 серии из 20] (2018) HDTVRip от GeneralFilm

Ответить на тему
 
Автор Сообщение

Starik60 ®

Пол: Мужской

Стаж: 2 месяца 4 дня

Сообщений: 108

Откуда: Москва, Россия

Создавать темы 14-Ноя-2018 10:50

[Цитировать]

Золотая лихорадка / Gold Rush
Год выпуска: 2018
Жанр: Документальный, природа, география, путешествия, приключения, исследование
Выпущено: США, Raw Television, Discovery Channel
Режиссер: Кристофер Голдинг
В ролях: Паркер Шнабель, Тони Битс, Рик Несс, Моника Битс, Минни Битс
О фильме: Живя вдали от цивилизации на Аляске, предприимчивые и всем знакомые золотоискатели продолжают поиски драгоценного металла. С новыми работниками и машинами, новыми участками и способами добычи золота ставки повышаются, как никогда прежде. Но принесёт ли больший риск большую прибыль? У команд есть огромные драги, а значит, можно поставить перед собой самые амбициозные цели за всю историю программы! В то же время наших героев ждут серьезные трудности, им придется трудиться круглосуточно, чтобы обслуживать дорогое оборудование. При этом успех и шанс разбогатеть будет во многом зависеть от того, смогут ли члены команд ужиться друг с другом.

Качество: HDTVRip
Видео: XviD, ~ 1600 Кбит/с, 720x400
Аудио: AC3, 2 ch, 192 Кбит/c
Продолжительность: 12 х ~ 00:44:00
Перевод: Дублированный

Скриншоты



MediaInfo

General
Complete name : H:\Раздачи 4\Золотая лихорадка S09 GeneralFilm\01 Золотая лихорадка GeneralFilm.avi
Format : AVI
Format/Info : Audio Video Interleave
File size : 1.10 GiB
Duration : 1 h 27 min
Overall bit rate : 1 802 kb/s
Writing application : VirtualDubMod 1.5.10.3 | www.virtualdub-fr.org || (build 2550/release)
Writing library : VirtualDubMod build 2550/release
Video
ID : 0
Format : MPEG-4 Visual
Format profile : Advanced Simple@L5
Format settings : BVOP1 / Custom Matrix
Format settings, BVOP : 1
Format settings, QPel : No
Format settings, GMC : No warppoints
Format settings, Matrix : Custom
Codec ID : XVID
Codec ID/Hint : XviD
Duration : 1 h 27 min
Bit rate : 1 600 kb/s
Width : 720 pixels
Height : 400 pixels
Display aspect ratio : 16:9
Frame rate : 25.000 FPS
Color space : YUV
Chroma subsampling : 4:2:0
Bit depth : 8 bits
Scan type : Progressive
Compression mode : Lossy
Bits/(Pixel*Frame) : 0.222
Stream size : 1 002 MiB (89%)
Writing library : XviD 73
Audio
ID : 1
Format : AC-3
Format/Info : Audio Coding 3
Commercial name : Dolby Digital
Codec ID : 2000
Duration : 1 h 27 min
Bit rate mode : Constant
Bit rate : 192 kb/s
Channel(s) : 2 channels
Channel layout : L R
Sampling rate : 48.0 kHz
Frame rate : 31.250 FPS (1536 SPF)
Bit depth : 16 bits
Compression mode : Lossy
Stream size : 120 MiB (11%)
Alignment : Split accross interleaves
Interleave, duration : 40 ms (1.00 video frame)
Interleave, preload duratio : 500 ms
Service kind : Complete Main
Благодарю за отличный постер ValkiriaGF
Релиз от:
[Профиль] [ЛС]
Показать сообщения:    
Ответить на тему

Текущее время: 16-Янв 15:10

Часовой пояс: UTC + 3



Вы не можете начинать темы
Вы не можете отвечать на сообщения
Вы не можете редактировать свои сообщения
Вы не можете удалять свои сообщения
Вы не можете голосовать в опросах
Вы не можете прикреплять файлы к сообщениям
Вы не можете скачивать файлы