За мечтой / Teen Spirit (2018) BDRip 1080p | iTunes

Reply to topic
 
Author Message

Monk ®

Gender: Male

Longevity: 8 months 1 day

Posts: 7476

Location: Казань

Post 10-Jul-2019 09:00

[Quote]

За мечтой / Teen Spirit Год выпуска: 2018
Жанр: Драма, музыка
Выпущено: США, Великобритания, Automatik, Aperture Media Partners, Blank Tape
Режиссер: Макс Мингелла
В ролях: Элль Фэннинг, Агнешка Гроховска, Арчи Мадекве, Златко Бурич, Милли Брэйди, Вивиан Опара, Риа Змитрович, Олив Грэй, Эндрю Эллис, Чарли Мэйхью
О фильме: Вайолет выросла в маленьком городке и всегда мечтала о славе. Участие в национальном конкурсе — это шанс добиться всего. Как справиться с неуверенностью, страхом и победить?
Качество: BDRip 1080p
Видео: MPEG-4 AVC, 13.8 Mбит/с, 1920x804
Аудио: Русский (АС3, 6 ch, 384 Кбит/с), (АС3, 6 ch, 640 Кбит/с), (АС3, 2 ch, 192 Кбит/с), английский (AC3, 6 ch, 640 Кбит/с)
Продолжительность: 01:33:53
Перевод: Дублированный [iTunes], профессиональный многоголосый [СВ Студия / HDRezka Studio]
Субтитры: Русские, английские

Скриншоты



MediaInfo

General
Unique ID : 58469533746703567062114241495805686235 (0x2BFCD2951BC02E0CDCFD9C7E0DB371DB)
Complete name : D:\Video111\Teen.Spirit.2018.BDRip.1080p.seleZen.mkv
Format : Matroska
Format version : Version 4
File size : 10.3 GiB
Duration : 1 h 33 min
Overall bit rate : 15.7 Mb/s
Movie name : Teen Spirit 2018 from селезень
Encoded date : UTC 2019-07-12 02:03:18
Writing application : mkvmerge v35.0.0 ('All The Love In The World') 64-bit
Writing library : libebml v1.3.9 + libmatroska v1.5.2
Video
ID : 1
Format : AVC
Format/Info : Advanced Video Codec
Format profile : High@L4.1
Format settings : CABAC / 5 Ref Frames
Format settings, CABAC : Yes
Format settings, Reference : 5 frames
Codec ID : V_MPEG4/ISO/AVC
Duration : 1 h 33 min
Bit rate : 13.8 Mb/s
Width : 1 920 pixels
Height : 804 pixels
Display aspect ratio : 2.40:1
Frame rate mode : Constant
Frame rate : 23.976 (24000/1001) FPS
Color space : YUV
Chroma subsampling : 4:2:0
Bit depth : 8 bits
Scan type : Progressive
Bits/(Pixel*Frame) : 0.373
Stream size : 9.06 GiB (88%)
Title : MTeam
Writing library : x264 core 157 r2938 2b00a84 TnP@MTeam Mod
Encoding settings : cabac=1 / ref=5 / deblock=1:-3:-3 / analyse=0x3:0x133 / me=umh / subme=10 / psy=1 / psy_rd=1.05:0.00 / mixed_ref=1 / me_range=32 / chroma_me=1 / trellis=2 / 8x8dct=1 / cqm=0 / deadzone=21,11 / fast_pskip=0 / chroma_qp_offset=-2 / threads=12 / lookahead_threads=2 / sliced_threads=0 / nr=0 / decimate=0 / interlaced=0 / bluray_compat=0 / constrained_intra=0 / bframes=8 / b_pyramid=2 / b_adapt=2 / b_bias=0 / direct=3 / weightb=1 / open_gop=0 / weightp=2 / keyint=250 / keyint_min=24 / scenecut=40 / intra_refresh=0 / rc_lookahead=250 / rc=crf / mbtree=0 / crf=16.2 / qcomp=0.60 / qpmin=0 / qpmax=69 / qpstep=4 / vbv_maxrate=62500 / vbv_bufsize=78125 / crf_max=0.0 / nal_hrd=none / filler=0 / ip_ratio=1.30 / pb_ratio=1.20 / aq=3:0.80
Language : English
Default : Yes
Forced : No
Color range : Limited
Color primaries : BT.709
Matrix coefficients : BT.709
Audio #1
ID : 2
Format : AC-3
Format/Info : Audio Coding 3
Commercial name : Dolby Digital
Codec ID : A_AC3
Duration : 1 h 33 min
Bit rate mode : Constant
Bit rate : 384 kb/s
Channel(s) : 6 channels
Channel layout : L R C LFE Ls Rs
Sampling rate : 48.0 kHz
Frame rate : 31.250 FPS (1536 SPF)
Bit depth : 16 bits
Compression mode : Lossy
Stream size : 258 MiB (2%)
Title : iTunes
Language : Russian
Service kind : Complete Main
Default : Yes
Forced : Yes
Audio #2
ID : 3
Format : AC-3
Format/Info : Audio Coding 3
Commercial name : Dolby Digital
Codec ID : A_AC3
Duration : 1 h 33 min
Bit rate mode : Constant
Bit rate : 640 kb/s
Channel(s) : 6 channels
Channel layout : L R C LFE Ls Rs
Sampling rate : 48.0 kHz
Frame rate : 31.250 FPS (1536 SPF)
Bit depth : 16 bits
Compression mode : Lossy
Stream size : 430 MiB (4%)
Title : MVO [СВ Студия]
Language : Russian
Service kind : Complete Main
Default : No
Forced : No
Audio #3
ID : 4
Format : AC-3
Format/Info : Audio Coding 3
Commercial name : Dolby Digital
Codec ID : A_AC3
Duration : 1 h 33 min
Bit rate mode : Constant
Bit rate : 192 kb/s
Channel(s) : 2 channels
Channel layout : L R
Sampling rate : 48.0 kHz
Frame rate : 31.250 FPS (1536 SPF)
Bit depth : 16 bits
Compression mode : Lossy
Stream size : 129 MiB (1%)
Title : MVO [HDRezka Studio]
Language : Russian
Service kind : Complete Main
Default : No
Forced : No
Audio #4
ID : 5
Format : AC-3
Format/Info : Audio Coding 3
Commercial name : Dolby Digital
Codec ID : A_AC3
Duration : 1 h 33 min
Bit rate mode : Constant
Bit rate : 640 kb/s
Channel(s) : 6 channels
Channel layout : L R C LFE Ls Rs
Sampling rate : 48.0 kHz
Frame rate : 31.250 FPS (1536 SPF)
Bit depth : 16 bits
Compression mode : Lossy
Stream size : 430 MiB (4%)
Title : Original
Language : English
Service kind : Complete Main
Default : No
Forced : No
Text #1
ID : 6
Format : UTF-8
Codec ID : S_TEXT/UTF8
Codec ID/Info : UTF-8 Plain Text
Duration : 1 h 29 min
Bit rate : 60 b/s
Count of elements : 892
Stream size : 39.7 KiB (0%)
Title : Full
Language : Russian
Default : No
Forced : No
Text #2
ID : 7
Format : UTF-8
Codec ID : S_TEXT/UTF8
Codec ID/Info : UTF-8 Plain Text
Duration : 1 h 32 min
Bit rate : 52 b/s
Count of elements : 1214
Stream size : 35.4 KiB (0%)
Title : Full
Language : English
Default : No
Forced : No
Text #3
ID : 8
Format : UTF-8
Codec ID : S_TEXT/UTF8
Codec ID/Info : UTF-8 Plain Text
Duration : 1 h 33 min
Bit rate : 60 b/s
Count of elements : 1428
Stream size : 41.5 KiB (0%)
Title : SDH
Language : English
Default : No
Forced : No
Menu
00:00:00.000 : en:Chapter 01
00:04:25.515 : en:Chapter 02
00:08:19.416 : en:Chapter 03
00:14:50.765 : en:Chapter 04
00:19:28.667 : en:Chapter 05
00:24:12.117 : en:Chapter 06
00:27:05.749 : en:Chapter 07
00:30:27.617 : en:Chapter 08
00:34:23.061 : en:Chapter 09
00:39:28.157 : en:Chapter 10
00:44:32.169 : en:Chapter 11
00:49:56.702 : en:Chapter 12
00:54:09.121 : en:Chapter 13
01:00:51.189 : en:Chapter 14
01:06:30.737 : en:Chapter 15
01:09:43.429 : en:Chapter 16
01:13:07.383 : en:Chapter 17
01:18:45.054 : en:Chapter 18
01:22:50.716 : en:Chapter 19
01:28:40.232 : en:Chapter 20
[Profile] [PM]
Display posts:    
Reply to topic

Current time is: 16-Jul 09:15

All times are UTC + 3



You cannot post new topics in this forum
You cannot reply to topics in this forum
You cannot edit your posts in this forum
You cannot delete your posts in this forum
You cannot vote in polls in this forum
You cannot attach files in this forum
You cannot download files in this forum