Крылья империи [1-12 серии из 12] (2017) WEB-DLRip от Files-x

Reply to topic
 
Author Message

bond74 ®

Gender: Male

Longevity: 11 months 8 days

Posts: 667

Post 10-Jul-2019 19:53

[Quote]

Крылья империи Год выпуска: 2017
Жанр: Драма, исторический
Выпущено: Россия, Триикс Медиа, по заказу АО «Первый канал»
Режиссер: Игорь Копылов
В ролях: Милош Бикович, Ксения Лукьянчикова, Юрий Колокольников, Григорий Некрасов, Александр Бухаров, Александр Лыков, Даниил Кокин, Вячеслав Чепурченко, Михаил Елисеев, Екатерина Проскурина, Евгений Антропов, Иван Колесников, Роман Полянский, Игорь Головин, Игорь Иванов, Наталья Данилова (I), Николай Козак, Юрий Уткин, Юрий Ицков, Любомирас Лауцявичюс, Анатолий Хропов, Виталий Коваленко, Евгений Миллер, Илья Шидловский, Дарья Румянцева, Юлия Марченко, Максим Дахненко, Эмилия Спивак, Дмитрий Сутырин, Андрей Смелов, Томас Эслон
О фильме: Действие картины охватывает период времени с 1913 до 1921 года, отражая драматические события российской истории, ураганом пронёсшиеся через судьбы людей и страны, оставив после себя для одних руины прошлого, для других - фундамент для новой жизни. История начинается в 1913 году празднованием 300-летия дома Романовых и заканчивается событиями 1921 года, когда была поставлена кровавая точка в окончании гражданской войны, а именно подавлением Кронштадтского мятежа.

Качество: WEB-DLRip
Видео: XviD, ~ 1438 Кбит/с, 720x304, 25 кадр/с
Аудио: AC3, 2 ch, 192 Кбит/с
Продолжительность: 12 х ~ 00:55:00
Перевод: Не требуется
Субтитры: нет

Скриншоты

MediaInfo

General
Complete name : H:\Krylya imperii.2017.WEB-DLRip. Files-x\04.Krylya imperii.2017.WEB-DLRip. Files-x.avi
Format : AVI
Format/Info : Audio Video Interleave
File size : 649 MiB
Duration : 55mn 18s
Overall bit rate : 1 640 Kbps
Writing application : VirtualDubMod 1.5.10.3 | www.virtualdub-fr.org || (build 2550/release)
Writing library : VirtualDubMod build 2550/release
Video
ID : 0
Format : MPEG-4 Visual
Format profile : Advanced Simple@L5
Format settings, BVOP : 1
Format settings, QPel : No
Format settings, GMC : No warppoints
Format settings, Matrix : Custom
Codec ID : XVID
Codec ID/Hint : XviD
Duration : 55mn 18s
Bit rate : 1 438 Kbps
Width : 720 pixels
Height : 304 pixels
Display aspect ratio : 2.35:1
Frame rate : 25.000 fps
Color space : YUV
Chroma subsampling : 4:2:0
Bit depth : 8 bits
Scan type : Progressive
Compression mode : Lossy
Bits/(Pixel*Frame) : 0.263
Stream size : 569 MiB (88%)
Writing library : XviD 73
Audio
ID : 1
Format : AC-3
Format/Info : Audio Coding 3
Mode extension : CM (complete main)
Codec ID : 2000
Duration : 55mn 18s
Bit rate mode : Constant
Bit rate : 192 Kbps
Channel(s) : 2 channels
Channel positions : Front: L R
Sampling rate : 48.0 KHz
Bit depth : 16 bits
Compression mode : Lossy
Stream size : 76.0 MiB (12%)
Alignment : Split accross interleaves
Interleave, duration : 40 ms (1.00 video frame)
Interleave, preload duration : 500 ms
Релиз от:


Last edited by bond74 on 2019-07-22 21:57; edited 2 times in total
[Profile] [PM]

charlie

Gender: Male

Longevity: 8 months 2 days

Posts: 2

Post 16-Jul-2019 07:16 (after 5 days)

[Quote]

Где продолжение?
[Profile] [PM]

Uhtq

Gender: Male

Longevity: 6 months 5 days

Posts: 1

Post 18-Jul-2019 18:08 (after 2 days 10 hours)

[Quote]

Что не раздаем? Проблемы? Ждем!!!!
[Profile] [PM]
Display posts:    
Reply to topic

Current time is: 23-Oct 08:32

All times are UTC + 3



You cannot post new topics in this forum
You cannot reply to topics in this forum
You cannot edit your posts in this forum
You cannot delete your posts in this forum
You cannot vote in polls in this forum
You cannot attach files in this forum
You cannot download files in this forum