Алита: Боевой ангел / Alita: Battle Angel (2019) BDRip 720p | Лицензия

Reply to topic
 
Author Message

Monk ®

Gender: Male

Longevity: 1 year

Posts: 9532

Location: Казань

Post 11-Jul-2019 13:07

[Quote]

Алита: Боевой ангел / Alita: Battle Angel Год выпуска: 2019
Жанр: Фантастика, боевик, триллер, мелодрама, приключения
Выпущено: Канада, Аргентина, США,Twentieth Century Fox, Lightstorm Entertainment, Troublemaker Studios
Режиссер: Роберт Родригес
В ролях: Роза Салазар, Кристоф Вальц, Дженнифер Коннелли, Махершала Али, Эд Скрейн, Джеки Эрл Хейли, Кин Джонсон, Хорхе Лендеборг мл., Лана Кондор, Идара Виктор
О фильме: Действие фильма происходит через 300 лет после Великой войны в XXVI веке. Доктор Идо находит останки женщины-киборга. После починки киборг ничего не помнит, но обнаруживает, что в состоянии пользоваться боевыми приемами киборгов. Начинаются поиски утерянных воспоминаний.
Качество: BDRip 720p
Видео: MPEG-4 AVC, 7709 Kбит/с, 1280x536
Аудио: Русский (DTS, 6 ch, 768 Кбит/с), (AC3, 2 ch, 192 Кбит/с), украинский (AC3, 6 ch, 448 Кбит/с), английский (DTS, 6 ch, 1510 Кбит/с)
Продолжительность: 02:01:57
Перевод: Дублированный [Лицензия], профессиональный многоголосый [СВ Студия / HDRezka Studio]
Субтитры: Русские, английские

Скриншоты


MediaInfo

x264 [info]: frame I:1777 Avg QP:14.44 size:141441
x264 [info]: frame P:39433 Avg QP:16.01 size: 70664
x264 [info]: frame B:134230 Avg QP:17.07 size: 29901
Формат : Matroska
Версия формата : Version 4
Размер файла : 9,22 Гбайт
Продолжительность : 2 ч. 1 м.
Общий поток : 10,8 Мбит/сек
Название фильма : Alita.Battle.Angel.2019.x264.BDRip.720p.Rus.Ukr.Eng.ExKinoRay
Дата кодирования : UTC 2019-07-17 17:12:32
Программа кодирования : mkvmerge v7.9.0 ('Birds') 64bit
Библиотека кодирования : libebml v1.3.1 + libmatroska v1.4.2
Видео
Идентификатор : 1
Формат : AVC
Формат/Информация : Advanced Video Codec
Профиль формата : High@L4.1
Настройки формата : CABAC / 12 Ref Frames
Параметр CABAC формата : Да
Параметр RefFrames формата : 12 кадров
Идентификатор кодека : V_MPEG4/ISO/AVC
Продолжительность : 2 ч. 1 м.
Битрейт : 7709 Кбит/сек
Ширина : 1280 пикселей
Высота : 536 пикселей
Соотношение сторон : 2,40:1
Режим частоты кадров : Постоянный
Частота кадров : 23,976 (24000/1001) кадра/сек
Цветовое пространство : YUV
Субдискретизация насыщенности : 4:2:0
Битовая глубина : 8 бит
Тип развёртки : Прогрессивная
Бит/(Пиксели*Кадры) : 0.469
Размер потока : 6,57 Гбайт (71%)
Заголовок : Alita.Battle.Angel.2019.x264.BDRip.720p.Rus.Ukr.Eng.ExKinoRay
Библиотека кодирования : x264 core 157 r2867+103 0d6443f t_mod_Custom_2 [8-bit@all X86_64]
Настройки программы : cabac=1 / ref=12 / deblock=1:-3:-3 / analyse=0x3:0x113 / me=umh / subme=10 / psy=1 / fade_compensate=0.00 / psy_rd=1.06:0.00 / mixed_ref=1 / me_range=32 / chroma_me=1 / trellis=2 / 8x8dct=1 / cqm=0 / deadzone=21,11 / fast_pskip=0 / chroma_qp_offset=-2 / threads=6 / lookahead_threads=1 / sliced_threads=0 / nr=0 / decimate=0 / interlaced=0 / bluray_compat=0 / constrained_intra=0 / fgo=0 / bframes=9 / b_pyramid=2 / b_adapt=2 / b_bias=0 / direct=3 / weightb=1 / open_gop=0 / weightp=2 / keyint=250 / keyint_min=23 / scenecut=40 / intra_refresh=0 / rc=crf / mbtree=0 / crf=15.5000 / qcomp=0.60 / qpmin=0:0:0 / qpmax=69:69:69 / qpstep=4 / ip_ratio=1.30 / pb_ratio=1.20 / aq=3:0.80 / aq-sensitivity=10.00 / aq-factor=1.00:1.00:1.00 / aq2=0 / aq3=0
Язык : English
Default : Да
Forced : Нет
Аудио #1
Идентификатор : 2
Формат : DTS
Формат/Информация : Digital Theater Systems
Идентификатор кодека : A_DTS
Продолжительность : 2 ч. 1 м.
Вид битрейта : Постоянный
Битрейт : 768 Кбит/сек
Каналы : 6 каналов
Channel layout : C L R Ls Rs LFE
Частота : 48,0 КГц
Частота кадров : 93,750 кадра/сек (512 SPF)
Битовая глубина : 24 бит
Метод сжатия : С потерями
Размер потока : 670 Мбайт (7%)
Заголовок : Дублированный (BD EUR)
Язык : Russian
Default : Да
Forced : Нет
Аудио #2
Идентификатор : 3
Формат : AC-3
Формат/Информация : Audio Coding 3
Коммерческое название : Dolby Digital
Идентификатор кодека : A_AC3
Продолжительность : 2 ч. 1 м.
Вид битрейта : Постоянный
Битрейт : 192 Кбит/сек
Каналы : 2 канала
Channel layout : L R
Частота : 48,0 КГц
Частота кадров : 31,250 кадров/сек (1536 SPF)
Битовая глубина : 16 бит
Метод сжатия : С потерями
Размер потока : 167 Мбайт (2%)
Заголовок : Профессиональный многоголосый (СВ Студия)
Язык : Russian
ServiceKind/String : Complete Main
Default : Нет
Forced : Нет
Аудио #3
Идентификатор : 4
Формат : AC-3
Формат/Информация : Audio Coding 3
Коммерческое название : Dolby Digital
Идентификатор кодека : A_AC3
Продолжительность : 2 ч. 1 м.
Вид битрейта : Постоянный
Битрейт : 192 Кбит/сек
Каналы : 2 канала
Channel layout : L R
Частота : 48,0 КГц
Частота кадров : 31,250 кадров/сек (1536 SPF)
Битовая глубина : 16 бит
Метод сжатия : С потерями
Размер потока : 167 Мбайт (2%)
Заголовок : Профессиональный многоголосый (HDRezka Studio)
Язык : Russian
ServiceKind/String : Complete Main
Default : Нет
Forced : Нет
Аудио #4
Идентификатор : 5
Формат : AC-3
Формат/Информация : Audio Coding 3
Коммерческое название : Dolby Digital
Идентификатор кодека : A_AC3
Продолжительность : 2 ч. 1 м.
Вид битрейта : Постоянный
Битрейт : 448 Кбит/сек
Каналы : 6 каналов
Channel layout : L R C LFE Ls Rs
Частота : 48,0 КГц
Частота кадров : 31,250 кадров/сек (1536 SPF)
Битовая глубина : 16 бит
Метод сжатия : С потерями
Размер потока : 391 Мбайт (4%)
Заголовок : Дублированный (BD EUR)
Язык : Ukrainian
ServiceKind/String : Complete Main
Default : Нет
Forced : Нет
Аудио #5
Идентификатор : 6
Формат : DTS ES
Формат/Информация : Digital Theater Systems
Коммерческое название : DTS-ES Matrix
Идентификатор кодека : A_DTS
Продолжительность : 2 ч. 1 м.
Вид битрейта : Постоянный
Битрейт : 1509 Кбит/сек
Каналы : 6 каналов
Channel(s)_Original : 7 каналов
Channel layout : C L R Ls Rs Cb LFE
Частота : 48,0 КГц
Частота кадров : 93,750 кадра/сек (512 SPF)
Битовая глубина : 24 бит
Метод сжатия : С потерями
Размер потока : 1,29 Гбайт (14%)
Заголовок : DTS Audio 5.1 ch 1509 Kbps
Язык : English
Default : Нет
Forced : Нет
Текст #1
Идентификатор : 7
Формат : UTF-8
Идентификатор кодека : S_TEXT/UTF8
Идентификатор кодека/Информация : UTF-8 Plain Text
Продолжительность : 1 ч. 36 м.
Битрейт : 0 бит/сек
ElementCount : 6
Размер потока : 269 байт (0%)
Заголовок : Forced
Язык : Russian
Default : Нет
Forced : Нет
Текст #2
Идентификатор : 8
Формат : UTF-8
Идентификатор кодека : S_TEXT/UTF8
Идентификатор кодека/Информация : UTF-8 Plain Text
Продолжительность : 1 ч. 56 м.
Битрейт : 52 бит/сек
ElementCount : 1051
Размер потока : 44,8 Кбайт (0%)
Заголовок : Full-length #1
Язык : Russian
Default : Нет
Forced : Нет
Текст #3
Идентификатор : 9
Формат : UTF-8
Идентификатор кодека : S_TEXT/UTF8
Идентификатор кодека/Информация : UTF-8 Plain Text
Продолжительность : 1 ч. 56 м.
Битрейт : 64 бит/сек
ElementCount : 1317
Размер потока : 55,4 Кбайт (0%)
Заголовок : Full-length (FOCS)
Язык : Russian
Default : Нет
Forced : Нет
Текст #4
Идентификатор : 10
Формат : UTF-8
Идентификатор кодека : S_TEXT/UTF8
Идентификатор кодека/Информация : UTF-8 Plain Text
Продолжительность : 1 ч. 56 м.
Битрейт : 50 бит/сек
ElementCount : 1253
Размер потока : 43,3 Кбайт (0%)
Заголовок : Full-length
Язык : Ukrainian
Default : Нет
Forced : Нет
Текст #5
Идентификатор : 11
Формат : UTF-8
Идентификатор кодека : S_TEXT/UTF8
Идентификатор кодека/Информация : UTF-8 Plain Text
Продолжительность : 1 ч. 55 м.
Битрейт : 41 бит/сек
ElementCount : 1347
Размер потока : 34,9 Кбайт (0%)
Заголовок : Full-length
Язык : English
Default : Нет
Forced : Нет
Текст #6
Идентификатор : 12
Формат : UTF-8
Идентификатор кодека : S_TEXT/UTF8
Идентификатор кодека/Информация : UTF-8 Plain Text
Продолжительность : 1 ч. 55 м.
Битрейт : 46 бит/сек
ElementCount : 1588
Размер потока : 39,4 Кбайт (0%)
Заголовок : SDH
Язык : English
Default : Нет
Forced : Нет
Меню
00:00:00.000 : en:00:00:00.000
00:03:28.625 : en:00:03:28.625
00:07:51.680 : en:00:07:51.680
00:10:07.982 : en:00:10:07.982
00:13:06.703 : en:00:13:06.703
00:15:06.739 : en:00:15:06.739
00:18:04.542 : en:00:18:04.542
00:22:58.711 : en:00:22:58.711
00:25:35.325 : en:00:25:35.325
00:31:40.899 : en:00:31:40.899
00:33:29.216 : en:00:33:29.216
00:36:32.816 : en:00:36:32.816
00:38:30.892 : en:00:38:30.892
00:42:05.481 : en:00:42:05.481
00:45:58.214 : en:00:45:58.214
00:48:31.450 : en:00:48:31.450
00:52:57.007 : en:00:52:57.007
00:55:14.353 : en:00:55:14.353
01:00:39.761 : en:01:00:39.761
01:02:56.564 : en:01:02:56.564
01:05:16.788 : en:01:05:16.788
01:10:50.496 : en:01:10:50.496
01:13:37.288 : en:01:13:37.288
01:16:35.216 : en:01:16:35.216
01:18:52.227 : en:01:18:52.227
01:22:48.297 : en:01:22:48.297
01:24:55.340 : en:01:24:55.340
01:28:25.217 : en:01:28:25.217
01:33:18.551 : en:01:33:18.551
01:36:08.763 : en:01:36:08.763
01:41:54.692 : en:01:41:54.692
01:45:23.442 : en:01:45:23.442
01:48:16.490 : en:01:48:16.490
01:51:43.655 : en:01:51:43.655
01:54:43.668 : en:01:54:43.668
01:56:51.504 : en:01:56:51.504
[Profile] [PM]
Display posts:    
Reply to topic

Current time is: 06-Dec 23:38

All times are UTC + 3



You cannot post new topics in this forum
You cannot reply to topics in this forum
You cannot edit your posts in this forum
You cannot delete your posts in this forum
You cannot vote in polls in this forum
You cannot attach files in this forum
You cannot download files in this forum