Прорыв / Breakthrough (2019) HDRip | iTunes

Reply to topic
 
Author Message

Monk ®

Gender: Male

Longevity: 9 months 3 days

Posts: 7868

Location: Казань

Post 11-Jul-2019 13:11

[Quote]

Прорыв / Breakthrough Год выпуска: 2019
Жанр: Драма, биография
Выпущено: США, Fox 2000 Pictures, Twentieth Century Fox
Режиссер: Роксанн Доусон
В ролях: Тофер Грэйс, Крисси Мец, Марсель Руис, Джош Лукас, Дэннис Хэйсбёрт, Майк Колтер, Ребекка Стааб, Сэм Трэммелл, Алиса Сковбай, Лиза Дурупт
О фильме: История чудесного спасения 14-летнего Джона, который провалился под лёд озера в Миссури. Когда мальчика доставили в больницу, он более часа не подавал признаков жизни. Его мать Джойс, не смирившись с потерей сына, призвала на помощь всю свою любовь и веру.
Качество: HDRip
Видео: XviD, 1792 Кбит/с, 720x304
Аудио: Русский (AC3, 6 ch, 384 Кбит/с), английский (AC3, 6 ch, 448 Кбит/с)
Продолжительность: 01:56:51
Перевод: Профессиональный многоголосый [iTunes]
Субтитры: Русские, английские

Скриншоты


MediaInfo

Общее
Полное имя : D:\Proryv.2019.HDRip\Proryv.2019.HDRip.avi
Формат : AVI
Формат/Информация : Audio Video Interleave
Размер файла : 1,77 Гбайт
Продолжительность : 1 ч. 56 м.
Общий поток : 2185 Кбит/сек
Программа кодирования : VirtualDubMod 1.5.10.3 | www.virtualdub-fr.org || (build 2550/release)
Библиотека кодирования : VirtualDubMod build 2550/release
Видео
Идентификатор : 0
Формат : MPEG-4 Visual
Профиль формата : Advanced Simple@L5
Настройки формата : BVOP2 / Custom Matrix
Параметр BVOP формата : 2
Параметр QPel формата : Нет
Параметр GMC формата : Без точки перехода
Параметр матрицы формата : Выборочная
Идентификатор кодека : XVID
Идентификатор кодека/Подсказка : XviD
Продолжительность : 1 ч. 56 м.
Битрейт : 1792 Кбит/сек
Ширина : 720 пикселей
Высота : 304 пикселя
Соотношение сторон : 2,35:1
Частота кадров : 23,976 (24000/1001) кадра/сек
Цветовое пространство : YUV
Субдискретизация насыщенности : 4:2:0
Битовая глубина : 8 бит
Тип развёртки : Прогрессивная
Метод сжатия : С потерями
Бит/(Пиксели*Кадры) : 0.341
Размер потока : 1,45 Гбайт (82%)
Библиотека кодирования : XviD 73
Аудио
Идентификатор : 1
Формат : AC-3
Формат/Информация : Audio Coding 3
Коммерческое название : Dolby Digital
Идентификатор кодека : 2000
Продолжительность : 1 ч. 56 м.
Вид битрейта : Постоянный
Битрейт : 384 Кбит/сек
Каналы : 6 каналов
Channel layout : L R C LFE Ls Rs
Частота : 48,0 КГц
Частота кадров : 31,250 кадров/сек (1536 SPF)
Битовая глубина : 16 бит
Метод сжатия : С потерями
Размер потока : 319 Мбайт (18%)
Выравнивание : Разделение по промежуткам
Продолжительность промежутка : 42 мс. (1,00 видеокадр)
Время предзагрузки промежутка : 500 мс.
ServiceKind/String : Complete Main
Общее
Полное имя : D:\Proryv.2019.HDRip\Proryv.2019.HDRip_track3_eng.ac3
Формат : AC-3
Формат/Информация : Audio Coding 3
Коммерческое название : Dolby Digital
Размер файла : 373 Мбайт
Продолжительность : 1 ч. 56 м.
Режим общего битрейта : Постоянный
Общий поток : 448 Кбит/сек
Аудио
Формат : AC-3
Формат/Информация : Audio Coding 3
Коммерческое название : Dolby Digital
Продолжительность : 1 ч. 56 м.
Вид битрейта : Постоянный
Битрейт : 448 Кбит/сек
Каналы : 6 каналов
Channel layout : L R C LFE Ls Rs
Частота : 48,0 КГц
Частота кадров : 31,250 кадров/сек (1536 SPF)
Битовая глубина : 16 бит
Метод сжатия : С потерями
Размер потока : 373 Мбайт (100%)
ServiceKind/String : Complete Main
Общее
Полное имя : D:\Proryv.2019.HDRip\Proryv.2019.HDRip_track4_Full_rus.srt
Размер файла : 132 Кбайт
Общее
Полное имя : D:\Proryv.2019.HDRip\Proryv.2019.HDRip_track5_Full_eng.srt
Формат : SubRip
Размер файла : 116 Кбайт
Текст
Формат : SubRip
Метод сжатия : Без потерь
[Profile] [PM]
Display posts:    
Reply to topic

Current time is: 18-Aug 00:20

All times are UTC + 3



You cannot post new topics in this forum
You cannot reply to topics in this forum
You cannot edit your posts in this forum
You cannot delete your posts in this forum
You cannot vote in polls in this forum
You cannot attach files in this forum
You cannot download files in this forum