Тень былых побед / Shadow Fighter (2018) WEB-DL 1080p

Reply to topic
 
Author Message

Monk ®

Gender: Male

Longevity: 11 months 8 days

Posts: 9042

Location: Казань

Post 12-Jul-2019 05:27

[Quote]

Тень былых побед / Shadow Fighter Год выпуска: 2018
Жанр: Драма
Выпущено: США, Shadow Fighter
Режиссер: Элин Дарне
В ролях: Стив Дарон, Бёрт Рейнолдс, Омар Брансон, Кристина Фигарола, Майкл Кристофер Родни, Чейз Виктория, Шана Передес, Иззи Мартинес, Мигель Суарес, Митч Лемос
О фильме: Тяжело переживающий смерть брата подросток Рэджи случайно знакомится с бездомным, в прошлом известным боксёром и претендентом на титул чемпиона мира. Вместе им предстоит пережить множество невзгод, столкнуться с неизвестностью, но прежде всего, победить призраков прошлого, преследующих каждого из них.

Качество: WEB-DL 1080p
Видео: MPEG-4 AVC, 4558 Кбит/с, 1912x808
Аудио: Русский (AC3, 2 ch, 192 Кбит/с), английский (АAC, 2 ch, ~160 Кбит/с)
Продолжительность: 01:38:57
Перевод: Любительский двухголосый [HiWayGrope]
Субтитры: Английские

Скриншоты



MediaInfo

General
Unique ID : 242388237533081640140949681200776170403 (0xB65A46C79AB73EA86298BB1591D14BA3)
Complete name : G:\Shadow.Fighter.2018.WEB-DL.1080p.mkv
Format : Matroska
Format version : Version 4 / Version 2
File size : 3.37 GiB
Duration : 1 h 38 min
Overall bit rate : 4 882 kb/s
Encoded date : UTC 2019-07-11 02:18:36
Writing application : mkvmerge v20.0.0 ('I Am The Sun') 64-bit
Writing library : libebml v1.3.5 + libmatroska v1.4.8
Video
ID : 1
Format : AVC
Format/Info : Advanced Video Codec
Format profile : High@L4
Format settings : CABAC / 5 Ref Frames
Format settings, CABAC : Yes
Format settings, RefFrames : 5 frames
Codec ID : V_MPEG4/ISO/AVC
Duration : 1 h 38 min
Bit rate : 4 558 kb/s
Width : 1 912 pixels
Height : 808 pixels
Display aspect ratio : 2.35:1
Frame rate mode : Constant
Frame rate : 23.976 (24000/1001) FPS
Color space : YUV
Chroma subsampling : 4:2:0
Bit depth : 8 bits
Scan type : Progressive
Bits/(Pixel*Frame) : 0.123
Stream size : 3.15 GiB (93%)
Language : English
Default : Yes
Forced : No
Color range : Limited
Color primaries : BT.709
Transfer characteristics : BT.709
Matrix coefficients : BT.709
Audio #1
ID : 2
Format : AC-3
Format/Info : Audio Coding 3
Codec ID : A_AC3
Duration : 1 h 38 min
Bit rate mode : Constant
Bit rate : 192 kb/s
Channel(s) : 2 channels
Channel positions : Front: L R
Sampling rate : 48.0 kHz
Frame rate : 31.250 FPS (1536 SPF)
Bit depth : 16 bits
Compression mode : Lossy
Stream size : 136 MiB (4%)
Title : DVO HiWayGrope
Language : Russian
Service kind : Complete Main
Default : Yes
Forced : No
Audio #2
ID : 3
Format : AAC
Format/Info : Advanced Audio Codec
Format profile : LC
Codec ID : A_AAC-2
Duration : 1 h 38 min
Bit rate : 132 kb/s
Channel(s) : 2 channels
Channel positions : Front: L R
Sampling rate : 48.0 kHz
Frame rate : 46.875 FPS (1024 SPF)
Compression mode : Lossy
Stream size : 91.9 MiB (3%)
Language : English
Default : No
Forced : No
Text
ID : 4
Format : UTF-8
Codec ID : S_TEXT/UTF8
Codec ID/Info : UTF-8 Plain Text
Duration : 1 h 36 min
Bit rate : 54 b/s
Count of elements : 1413
Stream size : 38.7 KiB (0%)
Language : English
Default : No
Forced : No
Menu
00:00:00.000 : en:1
00:10:22.000 : en:2
00:19:57.000 : en:3
00:30:57.000 : en:4
00:40:07.000 : en:5
00:49:58.000 : en:6
01:00:53.000 : en:7
01:11:05.000 : en:8
01:21:13.000 : en:9
01:32:03.000 : en:10
01:36:51.000 : en:11
[Profile] [PM]
Display posts:    
Reply to topic

Current time is: 23-Oct 08:05

All times are UTC + 3



You cannot post new topics in this forum
You cannot reply to topics in this forum
You cannot edit your posts in this forum
You cannot delete your posts in this forum
You cannot vote in polls in this forum
You cannot attach files in this forum
You cannot download files in this forum