Discovery: Золотая лихорадка / Gold Rush [9 сезон: 1-12 серии из 20] (2018) HDTVRip 720p от GeneralFilm

Ответить на тему
 
Автор Сообщение

Starik60 ®

Пол: Мужской

Стаж: 2 месяца 4 дня

Сообщений: 108

Откуда: Москва, Россия

Создавать темы 14-Ноя-2018 11:00

[Цитировать]

Золотая лихорадка / Gold Rush
Год выпуска: 2018
Жанр: Документальный, природа, география, путешествия, приключения, исследование
Выпущено: США, Raw Television, Discovery Channel
Режиссер: Кристофер Голдинг
В ролях: Паркер Шнабель, Тони Битс, Рик Несс, Моника Битс, Минни Битс
О фильме: Живя вдали от цивилизации на Аляске, предприимчивые и всем знакомые золотоискатели продолжают поиски драгоценного металла. С новыми работниками и машинами, новыми участками и способами добычи золота ставки повышаются, как никогда прежде. Но принесёт ли больший риск большую прибыль? У команд есть огромные драги, а значит, можно поставить перед собой самые амбициозные цели за всю историю программы! В то же время наших героев ждут серьезные трудности, им придется трудиться круглосуточно, чтобы обслуживать дорогое оборудование. При этом успех и шанс разбогатеть будет во многом зависеть от того, смогут ли члены команд ужиться друг с другом.

Качество: HDTVRip 720p
Видео: MPEG-4 AVC, ~ 4000 Кбит/с, 1280x720
Аудио: MP2, 2 ch, 384 Кбит/с
Продолжительность: 12 х ~ 00:44:00
Перевод: Дублированный

Скриншоты



MediaInfo

Общее
Уникальный идентификатор : 230561324075248868610373819395280411060 (0xAD747EED1A717C74DA873B8D0C9F19B4)
Полное имя : D:\Золотая лихорадка S09 720p GeneralFilm\01 Золотая лихорадка GeneralFilm.mkv
Формат : Matroska
Версия формата : Version 2
Размер файла : 2,68 Гбайт
Продолжительность : 1 ч. 27 м.
Режим общего битрейта : Постоянный
Общий поток : 4390 Кбит/сек
Программа кодирования : Lavf54.63.104
Библиотека кодирования : Lavf54.63.104
Видео
Идентификатор : 1
Формат : AVC
Формат/Информация : Advanced Video Codec
Профиль формата : High@L4.1
Настройки формата : CABAC / 3 Ref Frames
Параметр CABAC формата : Да
Параметр RefFrames формата : 3 кадра
Идентификатор кодека : V_MPEG4/ISO/AVC
Продолжительность : 1 ч. 27 м.
Вид битрейта : Постоянный
Битрейт : 4000 Кбит/сек
Ширина : 1280 пикселей
Высота : 720 пикселей
Соотношение сторон : 16:9
Режим частоты кадров : Постоянный
Частота кадров : 50,000 кадров/сек
Стандарт вещания : PAL
Цветовое пространство : YUV
Субдискретизация насыщенности : 4:2:0
Битовая глубина : 8 бит
Тип развёртки : Прогрессивная
Бит/(Пиксели*Кадры) : 0.087
Размер потока : 2,40 Гбайт (89%)
Default : Нет
Forced : Нет
Цветовой диапазон : Limited
Основные цвета : BT.709
Характеристики трансфера : BT.709
Коэффициенты матрицы : BT.709
Аудио
Идентификатор : 2
Формат : MPEG Audio
Версия формата : Version 1
Профиль формата : Layer 2
Идентификатор кодека : A_MPEG/L2
Идентификатор кодека/Подсказка : MP2
Продолжительность : 1 ч. 27 м.
Вид битрейта : Постоянный
Битрейт : 384 Кбит/сек
Каналы : 2 канала
Частота : 48,0 КГц
Метод сжатия : С потерями
Задержка видео : 8 мс.
Размер потока : 240 Мбайт (9%)
Язык : English
Default : Да
Forced : Нет
Благодарю за отличный постер ValkiriaGF
Релиз от:
[Профиль] [ЛС]

runetzone

Пол: Мужской

Стаж: 9 дней

Сообщений: 53

Откуда: Санкт-Петербург

Создавать темы 11-Янв-2019 22:32 (спустя 1 месяц 27 дней)

[Цитировать]

Спасибо за раздачу!!! ay
[Профиль] [ЛС]
Показать сообщения:    
Ответить на тему

Текущее время: 16-Янв 15:10

Часовой пояс: UTC + 3



Вы не можете начинать темы
Вы не можете отвечать на сообщения
Вы не можете редактировать свои сообщения
Вы не можете удалять свои сообщения
Вы не можете голосовать в опросах
Вы не можете прикреплять файлы к сообщениям
Вы не можете скачивать файлы