Discovery. В погоне за классикой / Chasing Classsic Cars [10 сезон: 1-4 серии из ?] (2018) HDTVRip 720p от Starik60

Reply to topic
 
Author Message

Starik60 ®

Gender: Male

Longevity: 9 months 5 days

Posts: 148

Location: Москва, Россия

Post 12-Aug-2019 16:29

[Quote]

В погоне за классикой / Chasing Classsic Cars
Год выпуска: 2018
Жанр: Документальный, познавательный, автомобили
Выпущено: США, Discovery
В ролях: Уэйн Карини, Дэвид Гудинг, Маккил Хагерти
О фильме: В новых выпусках восьмого сезона шоу «В погоне за классикой» Карини снова путешествует по всем штатам Америки и охотится за редкими и уникальными моделями, а также встречается со знаменитыми и уважаемыми коллекционерами и реставраторами, открывая зрителям новый мир классических и коллекционных моделей авто. Профессионал своего дела, Карини со знанием дела рассказывает про свои любимые машины, посвящает в тайны своей работы и на глазах у зрителей реконструирует историю американского автопрома.

Качество: HDTVRip 720p
Видео: MPEG-4 AVC, ~ 4000 Кбит/с, 1280x720
Аудио: MP2, 2 ch, 192 Кбит/с
Продолжительность: 4 x ~ 00:43:00
Перевод: Профессиональный (одноголосый, закадровый)

Скриншоты



MediaInfo

General
Unique ID : 235693589453286751584233611517467232721 (0xB150EF254B678EEFA85D3CB5939309D1)
Complete name : H:\Раздачи 4\В погоне за классикой 720p HDTVRip Starik60\01 В погоне за классикой by Starik60.mkv
Format : Matroska
Format version : Version 4 / Version 2
File size : 1.27 GiB
Duration : 43 min 14 s
Overall bit rate mode : Constant
Overall bit rate : 4 194 kb/s
Encoded date : UTC 2019-08-12 10:39:00
Writing application : mkvmerge v7.8.0 ('River Man') 64bit built on Mar 27 2015 16:31:37
Writing library : libebml v1.3.1 + libmatroska v1.4.2 / Lavf54.63.104
Cover : Yes
Attachments : cover4.jpg
Video
ID : 1
Format : AVC
Format/Info : Advanced Video Codec
Format profile : High@L4.1
Format settings : CABAC / 3 Ref Frames
Format settings, CABAC : Yes
Format settings, ReFrames : 3 frames
Codec ID : V_MPEG4/ISO/AVC
Duration : 43 min 14 s
Bit rate mode : Constant
Bit rate : 4 000 kb/s
Width : 1 280 pixels
Height : 720 pixels
Display aspect ratio : 16:9
Frame rate mode : Constant
Frame rate : 50.000 FPS
Standard : PAL
Color space : YUV
Chroma subsampling : 4:2:0
Bit depth : 8 bits
Scan type : Progressive
Bits/(Pixel*Frame) : 0.087
Stream size : 1.21 GiB (95%)
Default : No
Forced : No
Color range : Limited
Color primaries : BT.709
Transfer characteristics : BT.709
Matrix coefficients : BT.709
Audio
ID : 2
Format : MPEG Audio
Format version : Version 1
Format profile : Layer 2
Codec ID : A_MPEG/L2
Codec ID/Hint : MP2
Duration : 43 min 14 s
Bit rate mode : Constant
Bit rate : 192 kb/s
Channel(s) : 2 channels
Sampling rate : 48.0 kHz
Frame rate : 41.667 FPS (1152 SPF)
Compression mode : Lossy
Delay relative to video : 24 ms
Stream size : 59.4 MiB (5%)
Language : English
Default : Yes
Forced : No
Благодарю за отличный постер ValkiriaGF
Релиз от:
[Profile] [PM]
Display posts:    
Reply to topic

Current time is: 18-Aug 00:29

All times are UTC + 3



You cannot post new topics in this forum
You cannot reply to topics in this forum
You cannot edit your posts in this forum
You cannot delete your posts in this forum
You cannot vote in polls in this forum
You cannot attach files in this forum
You cannot download files in this forum