Контакт [1-12 серии из 12] (2018) WEB-DL 1080p

Reply to topic
 
Author Message

Nicodem ®

Gender: Male

Longevity: 1 year

Posts: 319

Post 13-Aug-2019 11:22

[Quote]

Контакт
Год выпуска: 2018
Жанр: Мистический детектив
Выпущено: Россия, Украина, Film.UA Group, Intra Communications(Россия)
Режиссер: Михаил Баркан
В ролях: Павел Баршак, Матвей Зубалевич, Екатерина Маликова, Сергей Колос, Александр Семчев, Анна Сагайдачная, Владимир Гладкий, Михаил Жонин, Константин Косинский, Ольга Вивчарюк, Неонила Белецкая, Виталий Салий, Андрей Смирнов, Николай Боклан, Виктор Сарайкин, Нина Антонова, Галина Корнеева, Сергей Деревянко, Алексей Череватенко, Дато Роинишвили
О фильме: Спецслужбы проводят взрывные работы на участке, где зафиксированы магнитные аномалии. Совершенно случайно в зоне взрыва оказываются три человека: преступник Владимир Голенко, фотохудожник Олег Малинин и неудачливый писатель Венедикт Тартаковский. В результате взрыва между этими людьми возникает странная связь – фотограф Малинин может читать мысли преступника Голенко, и даже видеть окружающий мир его глазами, а писатель Тартаковский может полностью управлять действиями Голенко и при этом общаться с Малининым на расстоянии.Тартаковский, получив в свое полное распоряжение преступника Голенко, решает его руками отомстить всем, кто мешал ему в жизни...

Качество: WEB-DL 1080p
Видео: MPEG-4 AVC, ~ 5105 Кбит/с, 1920x1080, 25 кадр/с
Аудио: AC3, 2 ch, 192 Кбит/с
Продолжительность: 12 x ~ 00:48:00
Перевод: Не требуется
Cубтитры: нет

Скриншоты


MediaInfo

General
Unique ID : 251564625527871112398309010229154297623 (0xBD4195A372B17322934F7E88CF2C3717)
Complete name : C:e01.2018.WEB-DL.(1080p).Getty.mkv
Format : Matroska
File size : 1.67 GiB
Duration : 45mn 7s
Overall bit rate : 5 299 Kbps
Movie name : Kontakt.e01.2018.WEB-DL.(1080p).Getty
Encoded date : UTC 2019-08-12 22:16:15
Writing application : mkvmerge v7.8.0 ('River Man') 32bit built on Mar 27 2015 16:18:02
Writing library : libebml v1.3.1 + libmatroska v1.4.2
Video
ID : 1
Format : AVC
Format/Info : Advanced Video Codec
Format profile : High@L4.0
Format settings, CABAC : Yes
Format settings, ReFrames : 4 frames
Format settings, GOP : M=5, N=50
Codec ID : V_MPEG4/ISO/AVC
Duration : 45mn 7s
Bit rate : 5 001 Kbps
Width : 1 920 pixels
Height : 1 080 pixels
Display aspect ratio : 16:9
Frame rate mode : Variable
Frame rate : 25.000 fps
Color space : YUV
Chroma subsampling : 4:2:0
Bit depth : 8 bits
Scan type : Progressive
Bits/(Pixel*Frame) : 0.096
Stream size : 1.58 GiB (94%)
Audio
ID : 2
Format : AC-3
Format/Info : Audio Coding 3
Mode extension : CM (complete main)
Codec ID : A_AC3
Duration : 45mn 7s
Bit rate mode : Constant
Bit rate : 192 Kbps
Channel(s) : 2 channels
Channel positions : Front: L R
Sampling rate : 48.0 KHz
Bit depth : 16 bits
Compression mode : Lossy
Stream size : 62.0 MiB (4%)

Раздача ведётся путём добавления новых серий

Внимание! Раздача ведётся путём добавления новых серий; при каждом добавлении создаётся новый торрент.
Чтобы начать докачку новой серии, пользователям необходимо сделать следующее:
1. Остановить скачивание;
2. Удалить старый торрент у себя из клиента (старые серии удалять не надо);
3. Скачать новый торрент и запустить его у себя в клиенте вместо старого, при этом указать клиенту путь в старую папку куда и должно происходить скачивание новых серий. Ваш клиент при этом должен произвести хеширование (проверку) старой папки и будет докачивать только те серии, которых у вас ещё нет. Старые серии при этом не удаляются, а продолжают раздаваться! Eсли вы уже удалили старые серии, то предотвратить повторную закачку старых серий можно, отжав галочку в соответствующих местах при запуске нового торрента.
[Profile] [PM]
Display posts:    
Reply to topic

Current time is: 15-Dec 14:15

All times are UTC + 3



You cannot post new topics in this forum
You cannot reply to topics in this forum
You cannot edit your posts in this forum
You cannot delete your posts in this forum
You cannot vote in polls in this forum
You cannot attach files in this forum
You cannot download files in this forum