Тень любви [1-4 серии из 4] (2018) WEB-DLRip от Files-x

Reply to topic
 
Author Message

Серый1779 ®

Gender: Male

Longevity: 9 months 5 days

Posts: 517

Location: Украина

Post 13-Aug-2019 23:38

[Quote]

Тень любви
Год выпуска: 2018
Жанр: Мелодрама
Выпущено: Россия, Украина, Кинокомпания "Star Media"
Режиссер: Владимир Харченко-Куликовский
В ролях: Мария Валешная, Артемий Егоров, Александр Пашков, Анастасия Пустовит, Елена Стефанская, Никита Пархоменко, Владислав Романченко, Светлана Шекера, Руслан Коваль, Александр Онуфриев, Татьяна Вашневская
О фильме: Рина узнает, что ее муж Тимофей попал в автокатастрофу. Она в отчаянии, но не только от того, что жизни мужа угрожает серьезная опасность. Оказывается, что в машине Тимофей был с любовницей Еленой, от которой у него семилетний сын. Получается, что Тимур жил на две семьи и обманывал ее! Беды множатся. Тимофей выживает, но передвигаться сможет только на инвалидной коляске. Елена умирает в больнице и заботу о ее сыне Паше, Рине приходится взять на себя. Но самое главное - Рина на перепутье - что ей делать? Найти в себе силы простить мужа, который так нуждается в ее любви и заботе, или ответить на чувства Константина, внезапно ворвавшегося в ее жизнь и готового ради на нее на всё?

Качество: WEB-DLRip
Видео: XviD, ~ 1736 Кбит/с, 720x400, 25 кадр/с
Аудио: AC3, 2 ch, 192 Кбит/с
Продолжительность: 4 x ~ 00:45:00
Перевод: Не требуется
Cубтитры: нет

Скриншоты



MediaInfo

General
Complete name : C:\Users\DOM\Desktop\ВИДЕО\Тень любви.(2018).WEB-DLRip.by.Nicodem.Files-x\01.Тень любви.(2018).WEB-DLRip.by.Nicodem.Files-x.avi
Format : AVI
Format/Info : Audio Video Interleave
File size : 592 MiB
Duration : 42mn 43s
Overall bit rate : 1 938 Kbps
Writing application : VirtualDubMod 1.5.10.3 | www.virtualdub-fr.org || (build 2550/release)
Writing library : VirtualDubMod build 2550/release
Video
ID : 0
Format : MPEG-4 Visual
Format profile : Advanced Simple@L5
Format settings, BVOP : 1
Format settings, QPel : No
Format settings, GMC : No warppoints
Format settings, Matrix : Custom
Codec ID : XVID
Codec ID/Hint : XviD
Duration : 42mn 43s
Bit rate : 1 736 Kbps
Width : 720 pixels
Height : 400 pixels
Display aspect ratio : 16:9
Frame rate : 25.000 fps
Color space : YUV
Chroma subsampling : 4:2:0
Bit depth : 8 bits
Scan type : Progressive
Compression mode : Lossy
Bits/(Pixel*Frame) : 0.241
Stream size : 530 MiB (90%)
Writing library : XviD 73
Audio
ID : 1
Format : AC-3
Format/Info : Audio Coding 3
Mode extension : CM (complete main)
Codec ID : 2000
Duration : 42mn 43s
Bit rate mode : Constant
Bit rate : 192 Kbps
Channel(s) : 2 channels
Channel positions : Front: L R
Sampling rate : 48.0 KHz
Bit depth : 16 bits
Compression mode : Lossy
Stream size : 58.7 MiB (10%)
Alignment : Split accross interleaves
Interleave, duration : 40 ms (1.00 video frame)
Interleave, preload duration : 500 ms

Раздача ведётся путём добавления новых серий

Внимание! Раздача ведётся путём добавления новых серий; при каждом добавлении создаётся новый торрент.
Чтобы начать докачку новой серии, пользователям необходимо сделать следующее:
1. Остановить скачивание;
2. Удалить старый торрент у себя из клиента (старые серии удалять не надо);
3. Скачать новый торрент и запустить его у себя в клиенте вместо старого, при этом указать клиенту путь в старую папку куда и должно происходить скачивание новых серий. Ваш клиент при этом должен произвести хеширование (проверку) старой папки и будет докачивать только те серии, которых у вас ещё нет. Старые серии при этом не удаляются, а продолжают раздаваться! Eсли вы уже удалили старые серии, то предотвратить повторную закачку старых серий можно, отжав галочку в соответствующих местах при запуске нового торрента.
Релиз от:
[Profile] [PM]
Display posts:    
Reply to topic

Current time is: 17-Aug 23:47

All times are UTC + 3



You cannot post new topics in this forum
You cannot reply to topics in this forum
You cannot edit your posts in this forum
You cannot delete your posts in this forum
You cannot vote in polls in this forum
You cannot attach files in this forum
You cannot download files in this forum