Сектор Зеро / Section zéro [1-8 серии из 8] (2016) WEB-DLRip от GeneralFilm

Reply to topic
 
Author Message

vsobbol ®

Gender: Male

Longevity: 1 year

Posts: 370

Location: Донецк

Post 25-Aug-2019 09:28

[Quote]

Сектор Зеро / Section zéro
Год выпуска: 2016
Жанр: Фантастика, триллер, драма, приключения
Выпущено: Франция, CANAL+, Europacorp Television
Режиссер: Иван Фегyверес
В ролях: Ола Рапас, Хилде Де Бардемакер, Патрик Декам, Жюльет Дол, Паскаль Греггори, Чеки Карио, Жеральд Ларош, Лоран Мале, Катрин Маршаль, Франсис Рено
О фильме: Гигантские транснациональные корпорации захватили власть на планете и сражаются за последние оставшиеся на Земле водные запасы. Среди таких корпораций, насаждающих в подконтрольных странах тоталитарный режим, лидирует стремительно растущая корпорация Прометей. Одна из целей корпорации — замена государственной полиции на частную армию «Чёрный эскадрон», чей глава — Монро в свою очередь мечтает заменить солдат андроидами. Монро противостоит полицейский-идеалист Сайрус, чья цель — спасти мир, каким он его знал, от полного исчезновения. Ради этой цели Сайрус формирует «Секцию Зеро» — группу, которая пойдёт на всё, использует любые методы, в том числе незаконные и жестокие, ради достижения великой цели.

Качество: WEB-DLRip
Видео: XviD build 73, 720x384 (1.85:1), 25.000 fps, ~ 1510 Kbps (~ 0.220 bit/pixel)
Аудио: 48.0 kHz, AC3, 2/0 ch, 192 kbps
Продолжительность: 8 х ~ 00:45:00
Перевод / Озвучка: Профессиональный [многоголосый]
Cубтитры: нет

Скриншоты



MediaInfo

General
Complete name : D:\Razdachi\Sektor.Zero.2016.WEB-DLRip.GeneralFilm\Sektor.Zero.e01.avi
Format : AVI
Format/Info : Audio Video Interleave
File size : 557 MiB
Duration : 45 min 26 s
Overall bit rate : 1 714 kb/s
Writing application : VirtualDubMod 1.5.10.3 | www.virtualdub-fr.org || (build 2550/release)
Writing library : VirtualDubMod build 2550/release
Video
ID : 0
Format : MPEG-4 Visual
Format profile : Advanced Simple@L5
Format settings : BVOP1 / Custom Matrix
Format settings, BVOP : 1
Format settings, QPel : No
Format settings, GMC : No warppoints
Format settings, Matrix : Custom
Codec ID : XVID
Codec ID/Hint : XviD
Duration : 45 min 26 s
Bit rate : 1 512 kb/s
Width : 720 pixels
Height : 384 pixels
Display aspect ratio : 1.85:1
Frame rate : 25.000 FPS
Color space : YUV
Chroma subsampling : 4:2:0
Bit depth : 8 bits
Scan type : Progressive
Compression mode : Lossy
Bits/(Pixel*Frame) : 0.219
Stream size : 492 MiB (88%)
Writing library : XviD 73
Audio
ID : 1
Format : AC-3
Format/Info : Audio Coding 3
Commercial name : Dolby Digital
Codec ID : 2000
Duration : 45 min 26 s
Bit rate mode : Constant
Bit rate : 192 kb/s
Channel(s) : 2 channels
Channel layout : L R
Sampling rate : 48.0 kHz
Frame rate : 31.250 FPS (1536 SPF)
Bit depth : 16 bits
Compression mode : Lossy
Stream size : 62.4 MiB (11%)
Alignment : Split accross interleaves
Interleave, duration : 40 ms (1.00 video frame)
Interleave, preload duratio : 500 ms
Service kind : Complete Main
Релиз от:
[Profile] [PM]
Display posts:    
Reply to topic

Current time is: 15-Dec 13:15

All times are UTC + 3



You cannot post new topics in this forum
You cannot reply to topics in this forum
You cannot edit your posts in this forum
You cannot delete your posts in this forum
You cannot vote in polls in this forum
You cannot attach files in this forum
You cannot download files in this forum