Rolling Thunder Revue: История Боба Дилана Мартина Скорсезе / Rolling Thunder Revue: A Bob Dylan Story by Martin Scorsese (2019) WEB-DLRip

Reply to topic
 
Author Message

BezReklamy ®

Gender: Male

Longevity: 28 days

Posts: 7

Post 27-Aug-2019 19:46

[Quote]

Rolling Thunder Revue: История Боба Дилана Мартина Скорсезе / Rolling Thunder Revue: A Bob Dylan Story by Martin Scorsese Год выпуска: 2019
Жанр: Документальный
Выпущено: США, Grey Water Park Productions, Sikelia Productions
Режиссер: Мартин Скорсезе
В ролях: Боб Дилан, Аллен Гинсберг, Патти Смит, Скарлет Ривера, Джоан Баез, Роджер МакГуинн, Ларри «Ратсо» Сломан, Джеймс Джанопулос, Рамблин Джек Эллиотт, Сэм Шепард, Шэрон Стоун
О фильме: Фильм переносит нас в осень 1975 года, когда у Дилана был тур. Режиссер Мартин Скорсезе покажет нам отрывки концерта.
Качество: WEB-DLRip
Видео: XviD, 1709 Кбит/с, 720x400, 23,976 кадр/с
Аудио: AC3, 6 ch, 448 Кбит/с
Продолжительность: 02:24:07
Перевод / Озвучка: Профессиональный [многоголосый] СВ Студия
Cубтитры: нет

Скриншоты


MediaInfo

Общее
Полное имя : C:\Users\Вадим\Downloads\Rolling.Thunder.Revue.A.Bob.Dylan.Story.by.Martin.Scorsese.2019.WEB-DLRip.by.BezReklamy.Files-x.avi
Формат : AVI
Формат/Информация : Audio Video Interleave
Профиль формата : OpenDML
Размер файла : 2,15 Гбайт
Продолжительность : 2 ч. 22 м.
Общий поток : 2169 Кбит/сек
Программа кодирования : VirtualDubMod 1.5.10.3 | www.virtualdub-fr.org || (build 2550/release)
Библиотека кодирования : VirtualDubMod build 2550/release
Видео
Идентификатор : 0
Формат : MPEG-4 Visual
Профиль формата : Advanced Simple@L5
Настройки формата : BVOP1 / Custom Matrix
Параметр BVOP формата : 1
Параметр QPel формата : Нет
Параметр GMC формата : Без точки перехода
Параметр матрицы формата : Выборочная
Идентификатор кодека : XVID
Идентификатор кодека/Подсказка : XviD
Продолжительность : 2 ч. 22 м.
Битрейт : 1709 Кбит/сек
Ширина : 720 пикселей
Высота : 400 пикселей
Соотношение сторон : 16:9
Частота кадров : 23,976 (24000/1001) кадра/сек
Частота кадров в оригинале : 23,976 (23976/1000) кадра/сек
Цветовое пространство : YUV
Субдискретизация насыщенности : 4:2:0
Битовая глубина : 8 бит
Тип развёртки : Прогрессивная
Метод сжатия : С потерями
Бит/(Пиксели*Кадры) : 0.248
Размер потока : 1,70 Гбайт (79%)
Библиотека кодирования : XviD 73
Аудио
Идентификатор : 1
Формат : AC-3
Формат/Информация : Audio Coding 3
Коммерческое название : Dolby Digital
Идентификатор кодека : 2000
Продолжительность : 2 ч. 22 м.
Вид битрейта : Постоянный
Битрейт : 448 Кбит/сек
Каналы : 6 каналов
ChannelLayout : L R C LFE Ls Rs
Частота : 48,0 КГц
Частота кадров : 31,250 кадров/сек (1536 SPF)
Битовая глубина : 16 бит
Метод сжатия : С потерями
Размер потока : 455 Мбайт (21%)
Выравнивание : Разделение по промежуткам
Продолжительность промежутка : 42 мс. (1,00 видеокадр)
Время предзагрузки промежутка : 500 мс.
ServiceKind/String : Complete Main
Релиз от: BezReklamy
[Profile] [PM]
Display posts:    
Reply to topic

Current time is: 21-Sep 01:39

All times are UTC + 3



You cannot post new topics in this forum
You cannot reply to topics in this forum
You cannot edit your posts in this forum
You cannot delete your posts in this forum
You cannot vote in polls in this forum
You cannot attach files in this forum
You cannot download files in this forum