Острые козырьки / Peaky Blinders [5 сезон: 1-4 серия из 6] (2019) WEB-DLRip-AVC от Generalfilm | AlexFilm

Reply to topic
 
Author Message

White Smoke ®

Gender: Male

Longevity: 10 months 7 days

Posts: 89

Post 01-Sep-2019 06:03

[Quote]

Острые козырьки / Peaky Blinders Год выпуска: 2019
Жанр: драма, криминал
Выпущено: Великобритания Студия: BBC Television Centre, Caryn Mandabach Productions, Tiger Aspect Productions
Режиссер: Колм МакКарти, Тим Милантс, Дэвид Кэффри
В ролях: Киллиан Мёрфи (Thomas Shelby), Пол Андерсон (Arthur Shelby), Хелен МакКрори (Aunt Polly), Софи Рандл (Ada Shelby), Нед Деннехи (Charlie Strong), Джо Коул (John Shelby), Йен Пек (Curly), Финн Коул (Michael Gray), Гарри Киртон (Finn Shelby), Тони Питтс (Sergeant Moss), Пакки Ли (Johnny Dogs), Наташа О’Кифф (Lizzie Stark)
О фильме: Острые козырьки» — это гангстерская сага канала BBC Two, герои которой списаны с членов реальной банды, действовавшей на территории Англии в начале XX века. Главные роли в проекте исполнили любимчики Кристофера Нолана, Киллиан Мерфи и Том Харди, а его шоураннером выступил Стивен Найт («Лок»). Автор сумел правдоподобно передать атмосферу рабочих окраин Бирмингема, где сталкивались интересы разномастных этнических банд и царил послевоенный передел сфер влияния, когда домой вернулось множество голодных и озлобленных молодых людей, которых научили убивать и не боятся смерти, в том числе своей. Сериал станет находкой для всех ценителей стилизованных исторических остросюжетных драм. Отдельно стоит отметить оригинальный саундтрек — музыка культовых британцев вроде PJ Harvey и Radiohead органично вписана в сюжетную канву. «Острые козырьки» сделаны в лучших традициях жанра: здесь есть и незаконный семейный бизнес, и круговая порука, и серый кардинал в лице сильной женщины, стоящей за всеми решениями главы клана, а также кровавые стычки с конкурентами, сложные отношения между членами семьи Шелби и не гнушающийся грязными методами антагонист.
Действие стартует после окончания Первой мировой войны, когда домой со службы возвращаются братья Шелби. Они умны, энергичны, полны решимости взять от мира свое и жестоки ровно настолько, насколько требуют время и сложившаяся ситуация. Старший брат Артур (Пол Андерсон) формально считается главой клана, но он необуздан и вспыльчив, тогда как более сдержанный Томас (Киллиан Мёрфи) гораздо умнее, хитрее и дальновиднее. Когда Томми оказывается обладателем партии оружия, случайно украденного рядовыми членами банды, то автоматически становится уже не только уголовным преступником, но и политическим, и попадает на карандаш самому Уинстону Черчиллю. Здравый смысл и родственники рекомендуют Томми избавиться от опасной добычи, но личные амбиции заставляют бывшего солдата попробовать прыгнуть выше головы. Тем временем на его след выходит жестокий инспектор Кэмпбелл (Сэм Нил) — законник с замашками садиста, которого дело о пропаже госимущества может хорошо продвинуть по карьерной лестнице. В это время в принадлежащий Козырькам паб, купленный в целях легализации семейных доходов и ставший их военным штабом, устраивается работать красавица-незнакомка из Ирландии. Вскоре Томми начинает подозревать, что она не та, за кого себя выдает.
Качество: WEB-DLRip-AVC
Видео: MPEG-4, AVC, 1024x512 (2.000), 1245 kbps, 25 fps, 0,095 bpp
Аудио: AC3 / 5.1 / 48 kHz / 384 kbps
Продолжительность: ~00:56:37
Перевод : Профессиональный [многоголосый] [AlexFilm]
Cубтитры: русские (Full)
Внимание! Присутствует ненормативная лексика

Скриншоты



MediaInfo

General
Unique ID : 238979042311591012230562117459097223691 (0xB3C9B07A592DC5B5A8C848A9A9E1020B)
Complete name : E:\Запись с тв\Peaky Blinders S05 2019 WEB-DLRip-AVC R.G.Generalfilm\Peaky Blinders.s05e01.2019.WEB-DLRip-AVC.by.White Smoke.R.G.Generalfilm.AlexFilm.mkv
Format : Matroska
Format version : Version 4 / Version 2
File size : 661 MiB
Duration : 56 min
Overall bit rate : 1 632 kb/s
Movie name : Peaky Blinders.s05e01.2019.WEB-DLRip-AVC.by.White Smoke.R.G.Generalfilm.AlexFilm.mkv
Encoded date : UTC 2019-08-31 04:04:36
Writing application : mkvmerge v6.8.0 ('Theme for Great Cities') 64bit built on Mar 2 2014 21:34:26
Writing library : libebml v1.3.0 + libmatroska v1.4.1
Cover : Yes
Attachments : COVER.jpg
Video
ID : 1
Format : AVC
Format/Info : Advanced Video Codec
Format profile : High@L4.1
Format settings, CABAC : Yes
Format settings, ReFrames : 10 frames
Codec ID : V_MPEG4/ISO/AVC
Duration : 56 min
Bit rate : 1 245 kb/s
Width : 1 024 pixels
Height : 512 pixels
Display aspect ratio : 2.000
Frame rate mode : Constant
Frame rate : 25.000 FPS
Color space : YUV
Chroma subsampling : 4:2:0
Bit depth : 8 bits
Scan type : Progressive
Bits/(Pixel*Frame) : 0.095
Stream size : 492 MiB (74%)
Writing library : x264 core 148 r2638 7599210
Encoding settings : cabac=1 / ref=10 / deblock=1:-2:-1 / analyse=0x3:0x113 / me=umh / subme=11 / psy=1 / psy_rd=0.00:0.15 / mixed_ref=1 / me_range=32 / chroma_me=1 / trellis=2 / 8x8dct=1 / cqm=0 / deadzone=21,11 / fast_pskip=0 / chroma_qp_offset=-3 / threads=6 / lookahead_threads=1 / sliced_threads=0 / nr=0 / decimate=0 / interlaced=0 / bluray_compat=0 / constrained_intra=0 / bframes=10 / b_pyramid=2 / b_adapt=2 / b_bias=0 / direct=1 / weightb=1 / open_gop=0 / weightp=2 / keyint=250 / keyint_min=25 / scenecut=40 / intra_refresh=0 / rc_lookahead=40 / rc=2pass / mbtree=1 / bitrate=1245 / ratetol=1.0 / qcomp=0.65 / qpmin=0 / qpmax=69 / qpstep=4 / cplxblur=20.0 / qblur=0.5 / vbv_maxrate=50000 / vbv_bufsize=65500 / nal_hrd=none / filler=0 / ip_ratio=1.40 / aq=1:1.00
Language : English
Default : Yes
Forced : No
Audio
ID : 2
Format : AC-3
Format/Info : Audio Coding 3
Mode extension : CM (complete main)
Format settings, Endianness : Big
Codec ID : A_AC3
Duration : 56 min
Bit rate mode : Constant
Bit rate : 384 kb/s
Channel(s) : 6 channels
Channel positions : Front: L C R, Side: L R, LFE
Sampling rate : 48.0 kHz
Frame rate : 31.250 FPS (1536 spf)
Compression mode : Lossy
Stream size : 156 MiB (24%)
Title : AlexFilm
Language : Russian
Default : Yes
Forced : No
Text
ID : 3
Format : UTF-8
Codec ID : S_TEXT/UTF8
Codec ID/Info : UTF-8 Plain Text
Title : Full |PhysKids|
Language : Russian
Default : No
Forced : No
Релиз от:
[Profile] [PM]
Display posts:    
Reply to topic

Current time is: 21-Sep 02:20

All times are UTC + 3



You cannot post new topics in this forum
You cannot reply to topics in this forum
You cannot edit your posts in this forum
You cannot delete your posts in this forum
You cannot vote in polls in this forum
You cannot attach files in this forum
You cannot download files in this forum