Балабол [3 сезон: 1-16 серии из 16] (2019) WEBRip от Files-x

Reply to topic
 
Author Message

bond74 ®

Gender: Male

Longevity: 10 months 6 days

Posts: 636

Post 04-Sep-2019 22:22

[Quote]

Балабол Год выпуска: 2019
Жанр: Детектив, комедия, криминал
Выпущено: Россия, «ТМ Продакшн»
Режиссер: Владимир Мельник (II)
В ролях: Константин Юшкевич, Вадим Андреев, Инга Оболдина, Ирина Низина, Мария Пирогова, Илья Шляга, Иван Агапов, Игорь Старосельцев, Константин Тополага, Сергей Неудачин, Антон Ескин
О фильме: Провинциальный оперативник Саня Балабин — волк-одиночка с неиссякаемым чувством юмора, который твердо уверен: со своими личными проблемами и любыми трудностями на работе он сможет справиться без чьей-либо помощи. Эту уверенность Балабина часто рушит сама жизнь, которая все время подкидывает ему просто безвыходные ситуации, и тут на выручку стражу порядка приходят его верные друзья Грибанов и Кузнечик.. В интересах следствия Балабину нередко приходится иметь дело с женщинами легкого поведения и мелкими мошенниками, бомжами и бродячими музыкантами. В новом сезоне Саня продолжит разбираться с бесконечным ворохом криминальных историй, а также всерьез займется личной жизнью и попытается вернуть жену. Любимая бросила его после 19 лет брака, сказав, что супруг женат только на своей работе. Дочь Маша объявляет о своей скорой свадьбе, и по случаю предстоящего торжества у Балабина наступает краткое перемирие с женой. Но героя временное затишье не устраивает, и ради сохранения семьи он готов пойти на отчаянный поступок…

Качество: WEBRip
Видео: XviD, ~ 1600 Кбит/с, 720x400, 25 кадр/с
Аудио: AC3, 2 ch, 192 Кбит/с
Продолжительность: 16 х ~ 00:48:00
Перевод: Не требуется
Субтитры: нет

Скриншоты

MediaInfo

General
Complete name : C:\00\6354\Балабол-3.2019.WEB-DLRip.Files-x\01. Балабол-3.2019.WEB-DLRip.Files-x.avi
Format : AVI
Format/Info : Audio Video Interleave
File size : 652 MiB
Duration : 50mn 36s
Overall bit rate : 1 802 Kbps
Writing application : VirtualDubMod 1.5.10.3 | www.virtualdub-fr.org || (build 2550/release)
Writing library : VirtualDubMod build 2550/release
Video
ID : 0
Format : MPEG-4 Visual
Format profile : Advanced Simple@L5
Format settings, BVOP : 1
Format settings, QPel : No
Format settings, GMC : No warppoints
Format settings, Matrix : Custom
Codec ID : XVID
Codec ID/Hint : XviD
Duration : 50mn 36s
Bit rate : 1 600 Kbps
Width : 720 pixels
Height : 400 pixels
Display aspect ratio : 16:9
Frame rate : 25.000 fps
Color space : YUV
Chroma subsampling : 4:2:0
Bit depth : 8 bits
Scan type : Progressive
Compression mode : Lossy
Bits/(Pixel*Frame) : 0.222
Stream size : 579 MiB (89%)
Writing library : XviD 73
Audio
ID : 1
Format : AC-3
Format/Info : Audio Coding 3
Mode extension : CM (complete main)
Codec ID : 2000
Duration : 50mn 36s
Bit rate mode : Constant
Bit rate : 192 Kbps
Channel(s) : 2 channels
Channel positions : Front: L R
Sampling rate : 48.0 KHz
Bit depth : 16 bits
Compression mode : Lossy
Stream size : 69.5 MiB (11%)
Alignment : Split accross interleaves
Interleave, duration : 40 ms (1.00 video frame)
Interleave, preload duration : 500 ms
Релиз от:
[Profile] [PM]
Display posts:    
Reply to topic

Current time is: 21-Sep 02:06

All times are UTC + 3



You cannot post new topics in this forum
You cannot reply to topics in this forum
You cannot edit your posts in this forum
You cannot delete your posts in this forum
You cannot vote in polls in this forum
You cannot attach files in this forum
You cannot download files in this forum