Человек и закон [эфир 06.09] (2019) SATRip от GeneralFilm

Reply to topic
 
Author Message

Starik60 ®

Gender: Male

Longevity: 10 months 8 days

Posts: 162

Location: Москва, Россия

Post 06-Sep-2019 15:08

[Quote]

Человек и закон
Год выпуска: 2018
Жанр: Документальный, расследование
Выпущено: Россия, Телекомпания "Останкино"
Режиссер: Денис Пиманов
Ведущий: Алексей Пиманов
О фильме: Общественно-политическая программа "Человек и закон" выходит на главном телеканале страны уже 35 лет (Алексей Пиманов ведет программу с 1996 года). Столь "преклонный возраст" ничуть не мешает программе оставаться одной из самых востребованных и актуальных на отечественном телевидении. Быть может потому, что основные темы - борьба с организованной преступностью, расследования о коррупции в высших эшелонах власти, криминальные истории…
Официальный сайт
Качество: SATRip
Видео: XviD, 1600 Кбит/с, 720x400
Аудио: AC3, 2 ch, 192 Кбит/с
Продолжительность: 00:51:00
Перевод: Не требуется

Скриншоты


MediaInfo

General
Complete name : G:\Temp\Человек и закон 30.11.2018.GeneralFilm.avi
Format : AVI
Format/Info : Audio Video Interleave
File size : 632 MiB
Duration : 49 min 3 s
Overall bit rate : 1 802 kb/s
Writing application : VirtualDubMod 1.5.10.3 | www.virtualdub-fr.org || (build 2550/release)
Writing library : VirtualDubMod build 2550/release
Video
ID : 0
Format : MPEG-4 Visual
Format profile : Advanced Simple@L5
Format settings : BVOP1 / Custom Matrix
Format settings, BVOP : 1
Format settings, QPel : No
Format settings, GMC : No warppoints
Format settings, Matrix : Custom
Codec ID : XVID
Codec ID/Hint : XviD
Duration : 49 min 3 s
Bit rate : 1 600 kb/s
Width : 720 pixels
Height : 400 pixels
Display aspect ratio : 16:9
Frame rate : 25.000 FPS
Color space : YUV
Chroma subsampling : 4:2:0
Bit depth : 8 bits
Scan type : Progressive
Compression mode : Lossy
Bits/(Pixel*Frame) : 0.222
Stream size : 561 MiB (89%)
Writing library : XviD 73
Audio
ID : 1
Format : AC-3
Format/Info : Audio Coding 3
Commercial name : Dolby Digital
Codec ID : 2000
Duration : 49 min 3 s
Bit rate mode : Constant
Bit rate : 192 kb/s
Channel(s) : 2 channels
Channel layout : L R
Sampling rate : 48.0 kHz
Frame rate : 31.250 FPS (1536 SPF)
Bit depth : 16 bits
Compression mode : Lossy
Stream size : 67.4 MiB (11%)
Alignment : Split accross interleaves
Interleave, duration : 40 ms (1.00 video frame)
Interleave, preload duratio : 500 ms
Service kind : Complete Main

Содержание

Нападающий «Зенита» Александр Кокорин и полузащитник «Краснодара» Павел Мамаев подали прошение об УДО в Алексеевский районный суд Белгородской области. В пятницу, 6 сентября, их ходатайство было удовлетворено. Через 10 дней они окажутся дома после почти годичного заключения. Очень долго общественное мнение было не на стороне футболистов. Качнулся ли теперь маятник в обратную сторону? Вызывающее поведение на грани фола и безнаказанность публичных людей: две стороны одной медали. Уголовное дело советского Пеле — Эдуарда Стрельцова — нападающего московского «Торпедо», который был арестован по обвинению в изнасиловании 20-летней девушки за несколько дней до старта чемпионата мира в Швеции. Историческое расследование.
Подмосковье. Пожар в элитном коттеджном поселке, гибель женщины и ее троих несовершеннолетних детей. Одно из самых резонансных и запутанных преступлений — на финишной прямой. К пожизненному сроку приговорен несостоявшийся жених старшей дочери погибшей. К 16 годам тюрьмы — она сама. За то, что заказала это убийство. Кто на самом деле мог расправиться с семейством и какие мотивы? Наследство, зависть, ревность, месть? Специальное расследование.
Скандал недели. В интернете появилось видео странной вечеринки, на которой гуляют Соболь, Навальный, Толоконникова, Верзилов. Поводом для скандала стал сам факт того, что они веселятся в тот день, когда были вынесены первые приговоры людям, которые по призыву именно этих, так называемых лидеров оппозиции, вышли на протестные митинги в Москве. И получили реальные сроки.
Чудеса прошедшего лета. От климатических аномалий до экстренно севшего в кукурузное поле самолета А 321 с неработающими двигателями и полными баками. В Омске несколько дней искали 3-летнего Колю, который потерялся в тайге. В Хабаровском крае чудом осталась в живых пожилая женщина — рядом кружил медведь. Нижний Новгород. Трое суток блуждала в лесу 5-летняя девчушка.
Беслан. 15 лет после трагедии. О событиях тех дней глазами очевидцев и тех, кто оказался в эпицентре. О бойцах спецназа «Альфа» и «Вымпел», которые спасали детей и стариков ценой собственной жизни. Маргарита Симоньян о пережитом. Эксклюзив программы.
Релиз от:
[Profile] [PM]
Display posts:    
Reply to topic

Current time is: 21-Sep 02:08

All times are UTC + 3



You cannot post new topics in this forum
You cannot reply to topics in this forum
You cannot edit your posts in this forum
You cannot delete your posts in this forum
You cannot vote in polls in this forum
You cannot attach files in this forum
You cannot download files in this forum