Дылды [1 сезон: 1-15 серии из 21] (2019) WEB-DLRip-AVC от Files-x

Reply to topic
 
Author Message

bond74 ®

Gender: Male

Longevity: 11 months 8 days

Posts: 667

Post 24-Sep-2019 20:35

[Quote]

Дылды Год выпуска: 2018
Жанр: Комедия, спорт
Выпущено: Россия, Art Pictures Vision по заказу телеканала СТС
Режиссер: Сергей Сенцов
В ролях: Павел Деревянко, Анна Невская, Дарья Урсуляк, Татьяна Орлова, Павел Майков, Анна Антонова, Сергей Рубеко, Ангелина Поплавская, Изабель Эйдлен, Евгения Тремасова, Юлия Макарова (II), Дмитрий Караневский, Степан Девонин, Анатолий Горячев, Марина Коваленко, Александр Андриенко, Николай Лунин, Дарья Пицик, Надежда Карпова, Маша Тухарь
О фильме: Успешный тренер, сексист и бабник Михаил Ковалёв теряет работу из-за скандального характера и неуважительного отношения к женщинам. Чтобы вернуться в Суперлигу, ему предстоит выиграть чемпионат с провинциальной студенческой женской командой. Помешать ему в этом постараются проректор-перфекционист Ирина и затаившая обиду экс-девушка Наталья.
Качество: WEB-DLRip-AVC
Видео: MPEG-4 AVC, ~ 1600 Кбит/с, 720x400, 25 кадр/с
Аудио: AC3, 2 ch, 192 Кбит/с
Продолжительность: 15 х ~ 00:25:00
Перевод: Не требуется
Субтитры: нет

Скриншоты

MediaInfo

General
Unique ID : 238284810565624637052134456944718127253 (0xB343FC35CFBB8C55BE5E6284E7F22095)
Complete name : C:\00\6354\Dyldy.2019. WEB-DLRip. Files-x\01. Dyldy.2019. WEB-DLRip. Files-x.mkv
Format : Matroska
File size : 333 MiB
Duration : 26mn 3s
Overall bit rate : 1 786 Kbps
Encoded date : UTC 2019-09-24 17:03:03
Writing application : mkvmerge v7.8.0 ('River Man') 32bit built on Apr 3 2015 12:11:22
Writing library : libebml v1.3.1 + libmatroska v1.4.2
Video
ID : 1
Format : AVC
Format/Info : Advanced Video Codec
Format profile : High@L4.1
Format settings, CABAC : Yes
Format settings, ReFrames : 9 frames
Codec ID : V_MPEG4/ISO/AVC
Duration : 26mn 3s
Bit rate : 1 600 Kbps
Width : 720 pixels
Height : 400 pixels
Display aspect ratio : 16:9
Frame rate : 25.000 fps
Color space : YUV
Chroma subsampling : 4:2:0
Bit depth : 8 bits
Scan type : Progressive
Bits/(Pixel*Frame) : 0.222
Stream size : 290 MiB (87%)
Writing library : x264 core 146 r2538 121396c
Encoding settings : cabac=1 / ref=9 / deblock=1:-2:-1 / analyse=0x3:0x133 / me=umh / subme=9 / psy=1 / psy_rd=1.00:0.15 / mixed_ref=1 / me_range=32 / chroma_me=1 / trellis=2 / 8x8dct=1 / cqm=0 / deadzone=21,11 / fast_pskip=0 / chroma_qp_offset=-3 / threads=18 / lookahead_threads=3 / sliced_threads=0 / nr=0 / decimate=1 / interlaced=0 / bluray_compat=0 / constrained_intra=0 / bframes=9 / b_pyramid=2 / b_adapt=2 / b_bias=0 / direct=1 / weightb=1 / open_gop=0 / weightp=2 / keyint=250 / keyint_min=25 / scenecut=40 / intra_refresh=0 / rc=2pass / mbtree=0 / bitrate=1600 / ratetol=1.0 / qcomp=0.60 / qpmin=0 / qpmax=69 / qpstep=4 / cplxblur=20.0 / qblur=0.5 / ip_ratio=1.40 / pb_ratio=1.30 / aq=2:1.00
Color primaries : BT.709-5, BT.1361, IEC 61966-2-4, SMPTE RP177
Transfer characteristics : BT.709-5, BT.1361
Matrix coefficients : BT.709-5, BT.1361, IEC 61966-2-4 709, SMPTE RP177
Audio
ID : 2
Format : AC-3
Format/Info : Audio Coding 3
Mode extension : CM (complete main)
Codec ID : A_AC3
Duration : 26mn 3s
Bit rate mode : Constant
Bit rate : 192 Kbps
Channel(s) : 2 channels
Channel positions : Front: L R
Sampling rate : 48.0 KHz
Bit depth : 16 bits
Compression mode : Lossy
Stream size : 35.8 MiB (11%)

Раздача ведётся путём добавления новых серий

Внимание! Раздача ведётся путём добавления новых серий; при каждом добавлении создаётся новый торрент.
Чтобы начать докачку новой серии, пользователям необходимо сделать следующее:
1. Остановить скачивание;
2. Удалить старый торрент у себя из клиента (старые серии удалять не надо);
3. Скачать новый торрент и запустить его у себя в клиенте вместо старого, при этом указать клиенту путь в старую папку куда и должно происходить скачивание новых серий. Ваш клиент при этом должен произвести хеширование (проверку) старой папки и будет докачивать только те серии, которых у вас ещё нет. Старые серии при этом не удаляются, а продолжают раздаваться! Eсли вы уже удалили старые серии, то предотвратить повторную закачку старых серий можно, отжав галочку в соответствующих местах при запуске нового торрента.
Релиз от:
[Profile] [PM]
Display posts:    
Reply to topic

Current time is: 23-Oct 09:04

All times are UTC + 3



You cannot post new topics in this forum
You cannot reply to topics in this forum
You cannot edit your posts in this forum
You cannot delete your posts in this forum
You cannot vote in polls in this forum
You cannot attach files in this forum
You cannot download files in this forum