Коронация / Матильда [1-4 серии из 4] (2018) WEB-DLRip

Reply to topic
 
Author Message

Nicodem ®

Gender: Male

Longevity: 11 months 5 days

Posts: 258

Post 05-Oct-2019 15:24

[Quote]

Коронация / Матильда
Год выпуска: 2018
Жанр: Драма, история
Выпущено: Россия, ТПО "РОК"
Режиссер: Алексей Учитель
В ролях: Ларс Айдингер, Михалина Ольшанска, Данила Козловский, Луизе Вольфрам, Ингеборга Дапкунайте, Григорий Добрыгин, Сергей Гармаш, Евгений Миронов, Виталий Кищенко, Виталий Коваленко, Галина Тюнина
О фильме: Последний русский император и балерина, утвердившая славу русского балета. Страсть, которая могла изменить русскую историю. Любовь, ставшая легендой. В жизни каждого человека случаются несколько дней, которые могут изменить ее навсегда. Когда происходит самое главное. Ты оборачиваешься на голос любви. И делаешь выбор. Но если властитель империи полюбит танцовщицу, сводящую с ума своей красотой… Успенский собор, Кремль, Ходынское поле, царские дворцы, сцены Мариинского и Большого театров — там, где бьется сердце вечной России.

Качество: WEB-DLRip
Видео: XviD, ~ 1800 Кбит/с, 720x304, 25 кадр/с
Аудио: AC3, 2 ch, 192 Кбит/с
Продолжительность: 4 x ~ 00:42:00
Перевод: Не требуется
Cубтитры: нет

Скриншоты


MediaInfo

General
Complete name : C:Koronatsiya.e01.(2018).WEB-DLRip.ExKinoRay.avi
Format : AVI
Format/Info : Audio Video Interleave
File size : 601 MiB
Duration : 42mn 23s
Overall bit rate : 1 981 Kbps
Writing application : VirtualDubMod 1.5.10.3 | www.virtualdub-fr.org || (build 2550/release)
Writing library : VirtualDubMod build 2550/release
Video
ID : 0
Format : MPEG-4 Visual
Format profile : Advanced Simple@L5
Format settings, BVOP : 1
Format settings, QPel : No
Format settings, GMC : No warppoints
Format settings, Matrix : Custom
Codec ID : XVID
Codec ID/Hint : XviD
Duration : 42mn 23s
Bit rate : 1 780 Kbps
Width : 720 pixels
Height : 304 pixels
Display aspect ratio : 2.35:1
Frame rate : 25.000 fps
Color space : YUV
Chroma subsampling : 4:2:0
Bit depth : 8 bits
Scan type : Progressive
Compression mode : Lossy
Bits/(Pixel*Frame) : 0.325
Stream size : 540 MiB (90%)
Writing library : XviD 73
Audio
ID : 1
Format : AC-3
Format/Info : Audio Coding 3
Mode extension : CM (complete main)
Codec ID : 2000
Duration : 42mn 20s
Bit rate mode : Constant
Bit rate : 192 Kbps
Channel(s) : 2 channels
Channel positions : Front: L R
Sampling rate : 48.0 KHz
Bit depth : 16 bits
Compression mode : Lossy
Stream size : 58.2 MiB (10%)
Alignment : Split accross interleaves
Interleave, duration : 40 ms (1.00 video frame)
Interleave, preload duration : 500 ms

Раздача ведётся путём добавления новых серий

Внимание! Раздача ведётся путём добавления новых серий; при каждом добавлении создаётся новый торрент.
Чтобы начать докачку новой серии, пользователям необходимо сделать следующее:
1. Остановить скачивание;
2. Удалить старый торрент у себя из клиента (старые серии удалять не надо);
3. Скачать новый торрент и запустить его у себя в клиенте вместо старого, при этом указать клиенту путь в старую папку куда и должно происходить скачивание новых серий. Ваш клиент при этом должен произвести хеширование (проверку) старой папки и будет докачивать только те серии, которых у вас ещё нет. Старые серии при этом не удаляются, а продолжают раздаваться! Eсли вы уже удалили старые серии, то предотвратить повторную закачку старых серий можно, отжав галочку в соответствующих местах при запуске нового торрента.
[Profile] [PM]
Display posts:    
Reply to topic

Current time is: 23-Oct 08:04

All times are UTC + 3



You cannot post new topics in this forum
You cannot reply to topics in this forum
You cannot edit your posts in this forum
You cannot delete your posts in this forum
You cannot vote in polls in this forum
You cannot attach files in this forum
You cannot download files in this forum