Екатерина. Самозванцы [3 сезон: 1-16 серии из 16] (2019) HDTVRip от Files-x

Reply to topic
 
Author Message

bond74 ®

Gender: Male

Longevity: 1 year

Posts: 684

Post 22-Oct-2019 00:15

[Quote]

Екатерина. Самозванцы Год выпуска: 2019
Жанр: История, драма, биография
Выпущено: Россия, Cosmos Studios
Режиссер: Дмитрий Иосифов
В ролях: Марина Александрова (I), Владимир Яглыч, Павел Табаков, Алина Томников, Сергей Колтаков, Александр Ткачев, Станислав Стрелков, Михаил Горевой, Ангелина Стречина, Сергей Марин
О фильме: 1774 год, правление Екатерины оказалось под большой угрозой с четырех сторон. Идет война с Турцией, которая может обернуться для России либо удачным миром, либо сокрушительным поражением. Кроме того, в Париже в руках беглых поляков и французских авантюристов оказывается важный козырь против Екатерины — Елизавета Тараканова, самозваная дочь Елизаветы Петровны. На юге России разгорается крестьянское восстание Емельяна Пугачева — еще одного самозванца, объявившего себя Петром III. Наконец, опасность зреет и во дворце: Панин просчитывает варианты передачи власти от Екатерины Павлу. От решений императрицы зависит судьба России.

Качество: HDTVRip
Видео: XviD, ~ 1600 Кбит/с, 720x400, 25 кадр/с
Аудио: AC3, 2 ch, 192 Кбит/с
Продолжительность: 16 x ~ 00:50:00
Перевод: Не требуется
Субтитры: нет

Скриншоты




MediaInfo

General
Complete name : F:\Ekaterina.S03.(2019).HDTVRip.Files-x\01.Ekaterina.Samozvancy.(2019).HDTVRip.Files-x.avi
Format : AVI
Format/Info : Audio Video Interleave
File size : 618 MiB
Duration : 47 min 56 s
Overall bit rate : 1 801 kb/s
Writing application : VirtualDubMod 1.5.10.3 | www.virtualdub-fr.org || (build 2550/release)
Writing library : VirtualDubMod build 2550/release
Video
ID : 0
Format : MPEG-4 Visual
Format profile : Advanced Simple@L5
Format settings : BVOP1 / Custom Matrix
Format settings, BVOP : 1
Format settings, QPel : No
Format settings, GMC : No warppoints
Format settings, Matrix : Custom
Codec ID : XVID
Codec ID/Hint : XviD
Duration : 47 min 56 s
Bit rate : 1 600 kb/s
Width : 720 pixels
Height : 400 pixels
Display aspect ratio : 16:9
Frame rate : 25.000 FPS
Color space : YUV
Chroma subsampling : 4:2:0
Bit depth : 8 bits
Scan type : Progressive
Compression mode : Lossy
Bits/(Pixel*Frame) : 0.222
Stream size : 549 MiB (89%)
Writing library : XviD 73
Audio
ID : 1
Format : AC-3
Format/Info : Audio Coding 3
Format settings, Endianness : Big
Codec ID : 2000
Duration : 47 min 56 s
Bit rate mode : Constant
Bit rate : 192 kb/s
Channel(s) : 2 channels
Channel positions : Front: L R
Sampling rate : 48.0 kHz
Frame rate : 31.250 FPS (1536 SPF)
Bit depth : 16 bits
Compression mode : Lossy
Stream size : 65.8 MiB (11%)
Alignment : Split accross interleaves
Interleave, duration : 40 ms (1.00 video frame)
Interleave, preload duration : 500 ms
Service kind : Complete Main

Раздача ведётся путём добавления новых серий

Внимание! Раздача ведётся путём добавления новых серий; при каждом добавлении создаётся новый торрент.
Чтобы начать докачку новой серии, пользователям необходимо сделать следующее:
1. Остановить скачивание;
2. Удалить старый торрент у себя из клиента (старые серии удалять не надо);
3. Скачать новый торрент и запустить его у себя в клиенте вместо старого, при этом указать клиенту путь в старую папку куда и должно происходить скачивание новых серий. Ваш клиент при этом должен произвести хеширование (проверку) старой папки и будет докачивать только те серии, которых у вас ещё нет. Старые серии при этом не удаляются, а продолжают раздаваться! Eсли вы уже удалили старые серии, то предотвратить повторную закачку старых серий можно, отжав галочку в соответствующих местах при запуске нового торрента.
Релиз от:
[Profile] [PM]
Display posts:    
Reply to topic

Current time is: 20-Nov 20:40

All times are UTC + 3



You cannot post new topics in this forum
You cannot reply to topics in this forum
You cannot edit your posts in this forum
You cannot delete your posts in this forum
You cannot vote in polls in this forum
You cannot attach files in this forum
You cannot download files in this forum