Русские не смеются [1 сезон: 1-3 выпуски из ??] (2019) WEB-DL 1080p от Files-x

Reply to topic
 
Author Message

papa1951deda ®

Gender: Male

Longevity: 11 months

Posts: 384

Location: Казахстан

Post 02-Nov-2019 07:42

[Quote]

Русские не смеются Год выпуска: 2019
Жанр: ТВ-шоу, юмор
Выпущено: Россия, Телеканал СТС, студия Свердловск
Ведущие: Михаил Галустян, Сергей Светлаков, Александр Незлобин
О фильме: В студии шоу встречаются лицом к лицу две команды, которые должны добиться главной цели - заставить смеяться зрителей. Непрофессиональные артисты постараются сделать все, чтобы услышать реакцию в виде хохота, однако "вредные" зрители так просто сдаваться не намерены: они до последнего будут сдерживать эмоции. Миллион рублей получат те, кто все-таки, несмотря на все препоны и старания скупых на эмоции оппонентов, справится с поставленной задачей.
Качество: WEB-DLRip 1080p
Видео: MPEG4 AVC, ~ 4890 Кбит/с, 1920x1080, 25 кадр/с
Аудио: AC3, 2 ch, 192 Кбит/с
Продолжительность: 3 x ~ 00:48:38
Перевод: Не требуется [Русский]
Cубтитры: нет

Скриншоты


MediaInfo

General
Unique ID : 248554570722892987116098205928297718294 (0xBAFDDE7A843975B6AE6737887735E216)
Complete name : H:\шоу\Русские не смеются .2019 WEB-DL 1080p. Files-x\01. Русские не смеются .2019 WEB-DL 1080p. Files-x.mkv
Format : Matroska
File size : 1.76 GiB
Duration : 48mn 39s
Overall bit rate : 5 185 Kbps
Encoded date : UTC 2019-11-01 18:43:10
Writing application : mkvmerge v7.8.0 ('River Man') 32bit built on Apr 3 2015 12:11:22
Writing library : libebml v1.3.1 + libmatroska v1.4.2
Video
ID : 1
Format : AVC
Format/Info : Advanced Video Codec
Format profile : High@L5.0
Format settings, CABAC : Yes
Format settings, ReFrames : 5 frames
Format settings, GOP : M=4, N=50
Codec ID : V_MPEG4/ISO/AVC
Duration : 48mn 39s
Bit rate : 4 890 Kbps
Width : 1 920 pixels
Height : 1 080 pixels
Display aspect ratio : 16:9
Frame rate : 25.000 fps
Standard : PAL
Color space : YUV
Chroma subsampling : 4:2:0
Bit depth : 8 bits
Scan type : Progressive
Bits/(Pixel*Frame) : 0.094
Stream size : 1.66 GiB (94%)
Color primaries : BT.709-5, BT.1361, IEC 61966-2-4, SMPTE RP177
Transfer characteristics : BT.709-5, BT.1361
Matrix coefficients : BT.709-5, BT.1361, IEC 61966-2-4 709, SMPTE RP177
Audio
ID : 2
Format : AC-3
Format/Info : Audio Coding 3
Mode extension : CM (complete main)
Codec ID : A_AC3
Duration : 48mn 39s
Bit rate mode : Constant
Bit rate : 192 Kbps
Channel(s) : 2 channels
Channel positions : Front: L R
Sampling rate : 48.0 KHz
Bit depth : 16 bits
Compression mode : Lossy
Stream size : 66.8 MiB (4%)

Внимание! Раздача ведётся путём добавления новых серий

Раздача ведётся путём добавления новых серий, при каждом добавлении создаётся новый торрент. Чтобы начать докачку новой серии, пользователям необходимо сделать следующее:
- Остановить скачивание.
- Удалить старый торрент у себя из клиента (старые серии удалять не надо).
- Скачать новый торрент и запустить его у себя в клиенте вместо старого, при этом указать клиенту путь в старую папку куда и должно происходить скачивание новых серий.
Ваш клиент при этом должен произвести хеширование (проверку) старой папки (если не производит сам - помогите ему сделать это), и будет докачивать только те серии которых у вас ещё нет. Старые серии при этом не удаляются, а продолжают раздаваться!
Релиз от:
[Profile] [PM]
Display posts:    
Reply to topic

Current time is: 20-Nov 14:40

All times are UTC + 3



You cannot post new topics in this forum
You cannot reply to topics in this forum
You cannot edit your posts in this forum
You cannot delete your posts in this forum
You cannot vote in polls in this forum
You cannot attach files in this forum
You cannot download files in this forum