Discovery: Золотой путь Паркера Шнабеля / Gold rush Parkers trail [2 сезон: 1-6 серии из 6] (2018) HDTVRip 720p от GeneralFilm

Reply to topic
 
Author Message

Starik60 ®

Gender: Male

Longevity: 11 months 10 days

Posts: 171

Location: Москва, Россия

Post 04-Dec-2018 13:35

[Quote]

Золотой путь Паркера Шнабеля / Gold rush Parkers trail
Год выпуска: 2018
Жанр: Документальный, природа, география, путешествия, приключения, исследование
Выпущено: США, Discovery Channel
Режисёр: Джеймс Левел
О фильме: Потомственный золотоискатель Паркер Шнабель к двадцати двум годам уже добыл золота на 13 миллионов долларов. В прошлом году, вдохновившись примером своего любимого дедушки − легендарного Джона Шнабеля − Паркер решил пройти путем первых покорителей Клондайка, пересечь Береговой хребет и добраться до легендарных приисков. Одного путешествия оказалось мало! В этом году он отправится в Гайану, в Южной Америке, чтобы найти нетронутые золотые залежи. Паркеру и Рику придется пробираться по непроходимой сельве, спасаться от укусов ядовитых змей и пауков и стараться не попасть на зуб кровожадным пираньям. Вдали от дома и без тяжелой техники − справится ли Паркер с опасностями, подстерегающими на каждом шагу, и доберется ли он до легендарного Золотого Эльдорадо?

Качество: HDTVRip 720p
Видео: MPEG-4 AVC, ~ 4000 Кбит/с, 1280x720
Аудио: MP2, 2 ch, 384 Кбит/с
Продолжительность: 6 x ~ 00:44:00
Перевод: Профессиональный (многоголосый, закадровый)

Скриншоты



MediaInfo

General
Unique ID : 12430348863401711416538945184866275747 (0x959FF841B04757FC9DA53CDE33C91A3)
Complete name : H:\Раздачи 3\Золотой путь Паркера Шнабеля s02 720p GeneralFilm\01 Золотой путь Паркера Шнабеля GeneralFilm.mkv
Format : Matroska
Format version : Version 2
File size : 1.35 GiB
Duration : 44 min 3 s
Overall bit rate mode : Constant
Overall bit rate : 4 389 kb/s
Writing application : Lavf54.63.104
Writing library : Lavf54.63.104
Video
ID : 1
Format : AVC
Format/Info : Advanced Video Codec
Format profile : High@L4.1
Format settings : CABAC / 3 Ref Frames
Format settings, CABAC : Yes
Format settings, ReFrames : 3 frames
Codec ID : V_MPEG4/ISO/AVC
Duration : 44 min 3 s
Bit rate mode : Constant
Bit rate : 4 000 kb/s
Width : 1 280 pixels
Height : 720 pixels
Display aspect ratio : 16:9
Frame rate mode : Constant
Frame rate : 50.000 FPS
Standard : PAL
Color space : YUV
Chroma subsampling : 4:2:0
Bit depth : 8 bits
Scan type : Progressive
Bits/(Pixel*Frame) : 0.087
Stream size : 1.21 GiB (89%)
Default : No
Forced : No
Color range : Limited
Color primaries : BT.709
Transfer characteristics : BT.709
Matrix coefficients : BT.709
Audio
ID : 2
Format : MPEG Audio
Format version : Version 1
Format profile : Layer 2
Codec ID : A_MPEG/L2
Codec ID/Hint : MP2
Duration : 44 min 3 s
Bit rate mode : Constant
Bit rate : 384 kb/s
Channel(s) : 2 channels
Sampling rate : 48.0 kHz
Compression mode : Lossy
Delay relative to video : 16 ms
Stream size : 121 MiB (9%)
Language : English
Default : Yes
Forced : No

Название серий

01. Спецвыпуск. Горное дело с монстрами.
02. Добро пожаловать в джунгли.
03. Ад в Дорадо.
04. Золотые войны: джунгли пробуждаются.
05. X отмечает место.
06. Джунгли наносят ответный удар.
Релиз от:
[Profile] [PM]
Display posts:    
Reply to topic

Current time is: 23-Oct 09:08

All times are UTC + 3



You cannot post new topics in this forum
You cannot reply to topics in this forum
You cannot edit your posts in this forum
You cannot delete your posts in this forum
You cannot vote in polls in this forum
You cannot attach files in this forum
You cannot download files in this forum