Рождество на двоих / Last Christmas (2019) BDRip 1080p | Чистый звук

Reply to topic
 
Author Message

Monk ®

Gender: Male

Longevity: 1 year 4 months

Posts: 10910

Location: Казань

Post 09-Jan-2020 02:41

[Quote]

Рождество на двоих / Last Christmas Год выпуска: 2019
Жанр: Драма, мелодрама, комедия
Выпущено: Великобритания, США, Calamity Films, Feigco Entertainment, Perfect World Pictures
Режиссер: Пол Фиг
В ролях: Мэдисон Инголдсби, Эмма Томпсон, Борис Исакович, Люси Миллер, Эмилия Кларк, Макс Болдри, Маргарет Клуни, Джон-Люк Робертс, Мишель Йео, Билал Зафар, Генри Голдинг, Ребекка Рут, Лидия Леонард, Патти ЛюПон
О фильме: Кейт, которая работает в магазине рождественских товаров, злоупотребляет выпивкой и давно бросила переживать из-за собственной жизни. Но всё меняется после знакомства с милым и очаровательным Томом.
Качество: BDRip 1080p
Видео: MPEG-4 AVC, 11.5 Mбит/с, 1920x960
Аудио: Русский (AC3, 2 ch, 192 Кбит/с), английский (DTS, 6 ch, 1509 Кбит/с)
Продолжительность: 01:42:50
Перевод: Дублированный [Чистый звук]
Субтитры: Английские

Скриншоты



MediaInfo

General
Unique ID : 200940217737536517156035217861243135321 (0x972BADA0F4B236899822DE3327356559)
Complete name : Last.Christmas.2019.BDRip.1080p.mkv
Format : Matroska
Format version : Version 4
File size : 9.48 GiB
Duration : 1 h 42 min
Overall bit rate : 13.2 Mb/s
Movie name : Last.Christmas.2019.1080p.BluRay.x264.DTS-FGT
Encoded date : UTC 2020-01-29 16:44:27
Writing application : mkvmerge v7.1.0 ('Good Love') 64bit built on Jul 27 2014 13:06:55
Writing library : libebml v1.3.0 + libmatroska v1.4.1
Video
ID : 1
Format : AVC
Format/Info : Advanced Video Codec
Format profile : High@L4.1
Format settings : CABAC / 4 Ref Frames
Format settings, CABAC : Yes
Format settings, Reference fra : 4 frames
Codec ID : V_MPEG4/ISO/AVC
Duration : 1 h 42 min
Bit rate : 11.5 Mb/s
Width : 1 920 pixels
Height : 960 pixels
Display aspect ratio : 2.000
Frame rate mode : Constant
Frame rate : 23.976 (24000/1001) FPS
Color space : YUV
Chroma subsampling : 4:2:0
Bit depth : 8 bits
Scan type : Progressive
Bits/(Pixel*Frame) : 0.260
Stream size : 8.26 GiB (87%)
Writing library : x264 core 148 r2748 97eaef2
Encoding settings : cabac=1 / ref=4 / deblock=1:-2:-2 / analyse=0x3:0x113 / me=umh / subme=9 / psy=1 / psy_rd=1.00:0.15 / mixed_ref=1 / me_range=16 / chroma_me=1 / trellis=2 / 8x8dct=1 / cqm=0 / deadzone=21,11 / fast_pskip=1 / chroma_qp_offset=-3 / threads=48 / lookahead_threads=3 / sliced_threads=0 / nr=0 / decimate=1 / interlaced=0 / bluray_compat=0 / constrained_intra=0 / bframes=3 / b_pyramid=2 / b_adapt=1 / b_bias=0 / direct=3 / weightb=1 / open_gop=0 / weightp=2 / keyint=250 / keyint_min=25 / scenecut=40 / intra_refresh=0 / rc_lookahead=50 / rc=2pass / mbtree=1 / bitrate=11500 / ratetol=1.0 / qcomp=0.60 / qpmin=0 / qpmax=69 / qpstep=4 / cplxblur=20.0 / qblur=0.5 / vbv_maxrate=31250 / vbv_bufsize=31250 / nal_hrd=none / filler=0 / ip_ratio=1.40 / aq=1:1.00
Language : English
Default : Yes
Forced : No
Audio #1
ID : 2
Format : AC-3
Format/Info : Audio Coding 3
Commercial name : Dolby Digital
Codec ID : A_AC3
Duration : 1 h 42 min
Bit rate mode : Constant
Bit rate : 192 kb/s
Channel(s) : 2 channels
Channel layout : L R
Sampling rate : 48.0 kHz
Frame rate : 31.250 FPS (1536 SPF)
Compression mode : Lossy
Stream size : 141 MiB (1%)
Language : Russian
Service kind : Complete Main
Default : Yes
Forced : No
Audio #2
ID : 3
Format : DTS
Format/Info : Digital Theater Systems
Codec ID : A_DTS
Duration : 1 h 42 min
Bit rate mode : Constant
Bit rate : 1 509 kb/s
Channel(s) : 6 channels
Channel layout : C L R Ls Rs LFE
Sampling rate : 48.0 kHz
Frame rate : 93.750 FPS (512 SPF)
Bit depth : 24 bits
Compression mode : Lossy
Stream size : 1.08 GiB (11%)
Language : English
Default : No
Forced : No
Text
ID : 4
Format : UTF-8
Codec ID : S_TEXT/UTF8
Codec ID/Info : UTF-8 Plain Text
Duration : 1 h 41 min
Bit rate : 76 b/s
Count of elements : 1670
Stream size : 56.8 KiB (0%)
Language : English
Default : No
Forced : No
Menu
00:00:00.000 : en:Chapter 01
00:05:48.389 : en:Chapter 02
00:10:26.959 : en:Chapter 03
00:16:47.006 : en:Chapter 04
00:23:20.941 : en:Chapter 05
00:26:15.448 : en:Chapter 06
00:29:39.068 : en:Chapter 07
00:36:00.366 : en:Chapter 08
00:40:51.740 : en:Chapter 09
00:45:30.978 : en:Chapter 10
00:49:55.617 : en:Chapter 11
00:52:26.768 : en:Chapter 12
00:58:10.820 : en:Chapter 13
01:05:48.444 : en:Chapter 14
01:10:31.143 : en:Chapter 15
01:13:50.592 : en:Chapter 16
01:19:31.224 : en:Chapter 17
01:24:23.516 : en:Chapter 18
01:30:42.437 : en:Chapter 19
01:37:41.730 : en:Chapter 20
[Profile] [PM]
Display posts:    
Reply to topic

Current time is: 02-Apr 12:19

All times are UTC + 3



You cannot post new topics in this forum
You cannot reply to topics in this forum
You cannot edit your posts in this forum
You cannot delete your posts in this forum
You cannot vote in polls in this forum
You cannot attach files in this forum
You cannot download files in this forum